Welcome Guest ( Log In | Register )

> Khiral - Chained (2018), Death/Thrash Metal
post Jan 11 2018, 15:28:52
Post #1

Правь статус, ####!111
**************
Group: Металариец
Posts: 14,621
Releases: 10089
From: Г.Харьков
On Forums: 6 years 5 months
Thanks: 166261 time(s)
Unknown


(IMG:http://metalarea.org/images/audiocovers/2018_Jan/acov_tid300404_thumb.jpg)

*Artist: Khiral
*Album: Chained
*Year: 2018
*Genre: Death/Thrash Metal
*Country: Finland (IMG:http://metalarea.org/forum/style_images/flags/Finland.png)
*Format: mp3@CBR320kbps
*Size: 62MB

Tracklist:
01. Stain
02. Orphanage
03. Chokehold of Shame
04. Narcissus in Your Mirror
05. Incinerate
06. Ultraviolent
07. Lichen
******************************
Total playing time: 29:08


Preview 2

Technical info
(IMG:http://metalarea.org/images/spectrogram/2018_Jan/b996a40979834fc846b647094d659f02.png)
Input File: 2 Orphanage.mp3
Channels : 2
Sample Rate : 44100
Precision : 16-bit
Duration : 00:03:42.20 = 9798800 samples = 16664.6 CDDA sectors
File Size : 8.99M
Bit Rate : 324k
Sample Encoding: MPEG audio (layer I, II or III)
Comments :
Title=Orphanage
Artist=Khiral
Album=Chained
Tracknumber=2/7
Year=2018
Genre=9
Discnumber=1/1



Register


Go to the top of the page
  Insert nick Quick quote
+Quote Post
 
Start new topic
Replies (1 - 3)
post Jan 11 2018, 22:14:17
Post #2

hearer & reader
**************
Group: Металариец
Posts: 6,981
Releases: 89
From: Moscow
On Forums: 11 years 1 month
Thanks: 6695 time(s)
Russian Federation


Судя по первому треку, модернятина.
Go to the top of the page
  Insert nick Quick quote
+Quote Post
post Jan 16 2018, 17:59:40
Post #3

MDM-Thrash Metal
**************
Group: Металариец
Posts: 7,174
Releases: 421
From: Одесса
On Forums: 11 years 2 months
Thanks: 13675 time(s)
Ukraine


Register
Go to the top of the page
  Insert nick Quick quote
+Quote Post
post Jan 22 2018, 10:07:32
Post #4

brutalcesar
**************
Group: Металариец
Posts: 17,580
Releases: 67
From: Рязань
On Forums: 9 years 9 months
Thanks: 8850 time(s)
Russian Federation


Модерно и скучно
Go to the top of the page
  Insert nick Quick quote
+Quote Post

Reply to this topicStart new topic
1 User(s) are reading this topic (1 Guests and 0 Anonymous Users)
0 Members:

 



- Lo-Fi Version Support form
Copyrights and abuse reports form
Time is now: 23rd October 2018 - 10:16:38