Welcome Guest ( Log In | Register )

> Greyfell - Horsepower (2018), Stoner/Doom Metal
post Jan 11 2018, 15:29:07
Post #1

Serial Uploader
Group Icon
Group: V.I.P
Posts: 33,302
Releases: 31573
From: Lithuania
On Forums: 10 years 5 months
Thanks: 360733 time(s)
Lithuania


(IMG:https://metalarea.org/images/audiocovers/2018_Jan/acov_tid300405_thumb.jpg)

*Artist: Greyfell
*Album: Horsepower
*Year: 2018
*Genre: Stoner/Doom Metal
*Country: France (IMG:https://metalarea.org/forum/style_images/flags/France.png)
*Format: mp3@CBR320kbps
*Size: 79MB

Tracklist:
01. The People's Temple
02. Horses
03. No Love
04. Spirit Of The Bear
05. King Of Xenophobia
******************************
Total playing time: 34:40



Technical info
(IMG:https://metalarea.org/images/spectrogram/2018_Jan/00b403084585babcb6d7122eb14fdb66.png)
Input File: 02. Horses.mp3
Channels : 2
Sample Rate : 44100
Precision : 16-bit
Duration : 00:04:22.85 = 11591465 samples = 19713.4 CDDA sectors
File Size : 10.6M
Bit Rate : 323k
Sample Encoding: MPEG audio (layer I, II or III)
Comments :
Title=Horses
Artist=Greyfell
Album=Horsepower
Tracknumber=2/5
Year=2018
Genre=9
Discnumber=1/1



Register


Go to the top of the page
  Insert nick Quick quote
+Quote Post
 
Start new topic
Replies (1 - 5)
post Jan 11 2018, 20:11:28
Post #2

ME[ta]LLOMAN
**************
Group: Металариец
Posts: 4,873
Releases: 3
From: Hughes'sRegion\Avdeyevka
On Forums: 12 years 7 months
Thanks: 1772 time(s)
Honduras


Go to the top of the page
  Insert nick Quick quote
+Quote Post
post Jan 11 2018, 22:07:20
Post #3

hearer & reader
**************
Group: Металариец
Posts: 7,141
Releases: 92
From: Moscow
On Forums: 11 years 2 months
Thanks: 6798 time(s)
Russian Federation




фукака
Go to the top of the page
  Insert nick Quick quote
+Quote Post
post Aug 11 2018, 14:09:33
Post #4

Group: Дух
Posts: 4
Releases: 0
On Forums: 8 months 2 weeks
Thanks: 0 time(s)
Russian Federation


перезалейте
Go to the top of the page
  Insert nick Quick quote
+Quote Post
post Aug 11 2018, 16:35:03
Post #5

Маньяк
**********
Group: Металариец
Posts: 1,263
Releases: 25
On Forums: 1 year 2 weeks
Thanks: 2535 time(s)
Unknown


CBR320kbps
Register


Thanks:
Go to the top of the page
  Insert nick Quick quote
+Quote Post
post Aug 12 2018, 10:01:23
Post #6

Group: Дух
Posts: 4
Releases: 0
On Forums: 8 months 2 weeks
Thanks: 0 time(s)
Russian Federation


INDARKNESS,
Спасибо
Go to the top of the page
  Insert nick Quick quote
+Quote Post

Reply to this topicStart new topic
1 User(s) are reading this topic (1 Guests and 0 Anonymous Users)
0 Members:

 



- Lo-Fi Version Support form
Copyrights and abuse reports form
Time is now: 20th November 2018 - 17:16:26