Welcome Guest ( Log In | Register )

> Releases Upload / Добавление релизов

Добавить релиз тут / Click here to add release
Рекомендованные обменники / Recommended file shares

> Greyfell - Horsepower (2018), Stoner/Doom Metal
post Jan 11 2018, 15:29:07
Post #1

Serial Uploader
Group Icon
Group: V.I.P
Posts: 31,397
Releases: 29726
From: Lithuania
On Forums: 9 years 8 months
Thanks: 341486 time(s)
Lithuania


(IMG:https://metalarea.org/images/audiocovers/2018_Jan/acov_tid300405_thumb.jpg)

*Artist: Greyfell
*Album: Horsepower
*Year: 2018
*Genre: Stoner/Doom Metal
*Country: France (IMG:https://metalarea.org/forum/style_images/flags/France.png)
*Format: mp3@CBR320kbps
*Size: 79MB

Tracklist:
01. The People's Temple
02. Horses
03. No Love
04. Spirit Of The Bear
05. King Of Xenophobia
******************************
Total playing time: 34:40



Technical info
(IMG:https://metalarea.org/images/spectrogram/2018_Jan/00b403084585babcb6d7122eb14fdb66.png)
Input File: 02. Horses.mp3
Channels : 2
Sample Rate : 44100
Precision : 16-bit
Duration : 00:04:22.85 = 11591465 samples = 19713.4 CDDA sectors
File Size : 10.6M
Bit Rate : 323k
Sample Encoding: MPEG audio (layer I, II or III)
Comments :
Title=Horses
Artist=Greyfell
Album=Horsepower
Tracknumber=2/5
Year=2018
Genre=9
Discnumber=1/1



Register


Вернуться к началу страницы
  Insert nick Quick quote
+Цитировать сообщение
 
Создать новую тему
Replies (1 - 2)
post Jan 11 2018, 20:11:28
Post #2

ME[ta]LLOMAN
**************
Group: Металариец
Posts: 4,817
Releases: 3
From: Hughes'sRegion\Avdeyevka
On Forums: 11 years 10 months
Thanks: 1697 time(s)
Honduras


Вернуться к началу страницы
  Insert nick Quick quote
+Цитировать сообщение
post Jan 11 2018, 22:07:20
Post #3

hearer & reader
**************
Group: Металариец
Posts: 5,983
Releases: 78
From: Moscow
On Forums: 10 years 5 months
Thanks: 6218 time(s)
Russian Federation




фукака
Вернуться к началу страницы
  Insert nick Quick quote
+Цитировать сообщение

ОтветитьСоздать новую тему
1 User(s) are reading this topic (1 Guests and 0 Anonymous Users)
0 Members:

 



- Lo-Fi Version Support form
Copyrights and abuse reports form
Time is now: 19th February 2018 - 14:52:00