Welcome Guest ( Log In | Register )

 
Reply to this topicStart new topic
> Infected Syren - Infected Syren (2018), Crossover/Thrash Metal/Psychobilly
post Jan 11 2018, 15:33:15
Post #1

Аннигилятор пивА
Group Icon
Group: V.I.P
Posts: 49,560
Releases: 15326
From: Koenigsberg - TILZIT
On Forums: 12 years 4 months
Thanks: 334131 time(s)
Russian Federation


(IMG:https://metalarea.org/images/audiocovers/2018_Jan/acov_tid300406_thumb.jpg)

*Artist: Infected Syren
*Album: Infected Syren
*Year: 2018
*Genre: Crossover/Thrash Metal/Psychobilly
*Country: Cyprus (IMG:https://metalarea.org/forum/style_images/flags/Cyprus.png)
*Format: mp3@CBR320kbps
*Size: 88MB

Tracklist:
01. Infected Circus
02. The B.B.P.
03. UnNormal
04. Sick
05. Unwanted
06. Boogie Stick
07. The Torture Brothers
08. Divide and Rule
09. Death After the Melody
10. Toothless Tigers
11. Syrens in the Opera
******************************
Total playing time: 40:06




Technical info
(IMG:https://metalarea.org/images/spectrogram/2018_Jan/8595869a416d51e07e1e6cdf4b872e76.png)
Input File: 03 UnNormal.mp3
Channels : 2
Sample Rate : 44100
Precision : 16-bit
Duration : 00:04:47.59 = 12682543 samples = 21569 CDDA sectors
File Size : 11.7M
Bit Rate : 324k
Sample Encoding: MPEG audio (layer I, II or III)
Comments :
Title=Unnormal
Artist=Infected Syren
Album=Infected Syren
Tracknumber=03/11
Year=2018
Genre=Rock
Discnumber=1/1



Register


Go to the top of the page
  Insert nick Quick quote
+Quote Post

Reply to this topicStart new topic
1 User(s) are reading this topic (1 Guests and 0 Anonymous Users)
0 Members:

 



- Lo-Fi Version Support form
Copyrights and abuse reports form
Time is now: 23rd October 2018 - 10:29:02