Welcome Guest ( Log In | Register )

> Miskatonic Union - Astral Quest (2018), Heavy Metal
post Jan 11 2018, 15:34:01
Post #1

Serial Uploader
Group Icon
Group: V.I.P
Posts: 32,485
Releases: 30777
From: Lithuania
On Forums: 9 years 11 months
Thanks: 353471 time(s)
Lithuania


(IMG:https://metalarea.org/images/audiocovers/2018_Jan/acov_tid300407_thumb.jpg)

*Artist: Miskatonic Union
*Album: Astral Quest
*Year: 2018
*Genre: Heavy Metal
*Country: United States (IMG:https://metalarea.org/forum/style_images/flags/United%20States.png)
*Format: mp3@CBR320kbps
*Size: 113MB

Tracklist:
01. Awakening
02. Road To The Mountains Of Madness
03. Bushido Ninja
04. Miskatonic Union
05. Nostradamus
06. Astral Wings
07. Captain Sparrow
08. Where Is Your Nation Now?
09. I Always Do What I Want
10. The Quest
******************************
Total playing time: 49:23



Technical info
(IMG:https://metalarea.org/images/spectrogram/2018_Jan/55008ea7f5a9c10d2ce0890799014e9a.png)
Input File: 02. Road to the Mountains of Madness.mp3
Channels : 2
Sample Rate : 44100
Precision : 16-bit
Duration : 00:04:11.74 = 11101822 samples = 18880.6 CDDA sectors
File Size : 10.1M
Bit Rate : 323k
Sample Encoding: MPEG audio (layer I, II or III)
Comments :
Title=Road to the Mountains of Madness
Artist=Miskatonic Union
Album=Astral Quest
Tracknumber=2/10
Year=2018
Genre=9
Discnumber=1/1



Register


Вернуться к началу страницы
  Insert nick Quick quote
+Цитировать сообщение
 
Создать новую тему
Replies (1 - 3)
post Jan 11 2018, 20:55:08
Post #2

hearer & reader
**************
Group: Металариец
Posts: 6,216
Releases: 81
From: Moscow
On Forums: 10 years 8 months
Thanks: 6368 time(s)
Russian Federation



Это, типа, послушать, что-ли надо?


Thanks:
(1) SAPOGi,
Вернуться к началу страницы
  Insert nick Quick quote
+Цитировать сообщение
post Jan 12 2018, 21:21:05
Post #3

Group: Подсевший
Posts: 22
Releases: 0
On Forums: 7 years 9 months
Thanks: 3 time(s)
Ukraine


если б у нас в селе играли я бы офигел. если б попросили купить диск я бы послал.
Вернуться к началу страницы
  Insert nick Quick quote
+Цитировать сообщение
post Jan 14 2018, 18:12:49
Post #4

Пять Литров
*****
Group: Металариец
Posts: 467
Releases: 0
On Forums: 8 years 10 months
Thanks: 99 time(s)
Ukraine


Хороший альбом от Латиносов-крепкий достойный твёрдой четвёрки релиз!!
Вернуться к началу страницы
  Insert nick Quick quote
+Цитировать сообщение

ОтветитьСоздать новую тему
2 User(s) are reading this topic (2 Guests and 0 Anonymous Users)
0 Members:

 



- Lo-Fi Version Support form
Copyrights and abuse reports form
Time is now: 24th May 2018 - 14:39:58