Welcome Guest ( Log In | Register )

> Releases Upload / Добавление релизов

Добавить релиз тут / Click here to add release
Рекомендованные обменники / Recommended file shares

 
ОтветитьСоздать новую тему
> Founders Of Ruin - Movement I: Concept [ep] (2018), Progressive Metal
post Jan 11 2018, 15:40:33
Post #1

Serial Uploader
Group Icon
Group: V.I.P
Posts: 31,468
Releases: 29800
From: Lithuania
On Forums: 9 years 8 months
Thanks: 342154 time(s)
Lithuania


(IMG:https://metalarea.org/images/audiocovers/2018_Jan/acov_tid300408_thumb.jpg)

*Artist: Founders Of Ruin
*Album: Movement I: Concept [ep]
*Year: 2018
*Genre: Progressive Metal
*Country: United States (IMG:https://metalarea.org/forum/style_images/flags/United%20States.png)
*Format: mp3@CBR320kbps
*Size: 63MB

Tracklist:
01. Morning Breaks
02. Reclaim
03. Virtue
04. Concept Of The Void
******************************
Total playing time: 27:27



Technical info
(IMG:https://metalarea.org/images/spectrogram/2018_Jan/4aec6147f1e297a887546e1056ccda18.png)
Input File: 02. Reclaim.mp3
Channels : 2
Sample Rate : 44100
Precision : 16-bit
Duration : 00:06:51.91 = 18165407 samples = 30893.5 CDDA sectors
File Size : 16.5M
Bit Rate : 321k
Sample Encoding: MPEG audio (layer I, II or III)
Comments :
Title=Reclaim
Artist=Founders of Ruin
Album=Movement I: Concept
Tracknumber=2/4
Year=2018
Genre=9
Discnumber=1/1



Register


Вернуться к началу страницы
  Insert nick Quick quote
+Цитировать сообщение

ОтветитьСоздать новую тему
1 User(s) are reading this topic (1 Guests and 0 Anonymous Users)
0 Members:

 



- Lo-Fi Version Support form
Copyrights and abuse reports form
Time is now: 24th February 2018 - 07:11:18