Welcome Guest ( Log In | Register )

> Infernal Faith - Dehumanized (2018), Death/Thrash Metal
post Jan 11 2018, 15:45:38
Post #1

Правь статус, ####!111
**************
Group: Металариец
Posts: 14,621
Releases: 10089
From: Г.Харьков
On Forums: 6 years 5 months
Thanks: 166260 time(s)
Unknown


(IMG:http://metalarea.org/images/audiocovers/2018_Jan/acov_tid300409_thumb.jpg)

*Artist: Infernal Faith
*Album: Dehumanized
*Year: 2018
*Genre: Death/Thrash Metal
*Country: Mexico (IMG:http://metalarea.org/forum/style_images/flags/Mexico.png)
*Format: mp3@CBR320kbps
*Size: 94MB

Tracklist:
01. Requiem
02. The Last Breath
03. Infernal Faith
04. River of Fire
05. Chaotic
06. Nicht Mehr
07. Distorted Dogmas
08. Profanis Thanatos
09. Nebular Winds
10. Victims
******************************
Total playing time: 44:34



Extended info


Technical info
(IMG:http://metalarea.org/images/spectrogram/2018_Jan/6acc225df02cb0afd131661e4e9032fc.png)
Input File: 03 Infernal Faith.mp3
Channels : 2
Sample Rate : 44100
Precision : 16-bit
Duration : 00:04:41.21 = 12401405 samples = 21090.8 CDDA sectors
File Size : 11.4M
Bit Rate : 323k
Sample Encoding: MPEG audio (layer I, II or III)
Comments :
Title=Infernal Faith
Artist=Infernal Faith
Album=Dehumanized
Tracknumber=3/10
Year=2018
Genre=9
Discnumber=1/1



Register


Go to the top of the page
  Insert nick Quick quote
+Quote Post
 
Start new topic
Replies (1 - 3)
post Jan 11 2018, 18:59:33
Post #2

Правь статус, ####!111
**************
Group: Металариец
Posts: 14,621
Releases: 10089
From: Г.Харьков
On Forums: 6 years 5 months
Thanks: 166260 time(s)
Unknown


Register


Go to the top of the page
  Insert nick Quick quote
+Quote Post
post Jan 11 2018, 20:47:58
Post #3

hearer & reader
**************
Group: Металариец
Posts: 6,981
Releases: 89
From: Moscow
On Forums: 11 years 1 month
Thanks: 6695 time(s)
Russian Federation



ох
Go to the top of the page
  Insert nick Quick quote
+Quote Post
post Jul 26 2018, 17:06:17
Post #4

добрый мизантроп
***********
Group: Металариец
Posts: 1,519
Releases: 0
From: Минск
On Forums: 7 years 11 months
Thanks: 451 time(s)
Madagascar


full YT preview
https://www.youtube.com/watch?v=TXM2h87Y1Y4

from dark
Register
Go to the top of the page
  Insert nick Quick quote
+Quote Post

Reply to this topicStart new topic
1 User(s) are reading this topic (1 Guests and 0 Anonymous Users)
0 Members:

 



- Lo-Fi Version Support form
Copyrights and abuse reports form
Time is now: 23rd October 2018 - 10:09:58