Welcome Guest ( Log In | Register )

> Releases Upload / Добавление релизов

Добавить релиз тут / Click here to add release
Рекомендованные обменники / Recommended file shares

> Infernal Faith - Dehumanized (2018), Death/Thrash Metal
post Jan 11 2018, 15:45:38
Post #1

Правь статус, ####!111
**************
Group: Металариец
Posts: 12,222
Releases: 8827
From: Г.Харьков
On Forums: 5 years 9 months
Thanks: 141385 time(s)
Unknown


(IMG:http://metalarea.org/images/audiocovers/2018_Jan/acov_tid300409_thumb.jpg)

*Artist: Infernal Faith
*Album: Dehumanized
*Year: 2018
*Genre: Death/Thrash Metal
*Country: Mexico (IMG:http://metalarea.org/forum/style_images/flags/Mexico.png)
*Format: mp3@CBR320kbps
*Size: 94MB

Tracklist:
01. Requiem
02. The Last Breath
03. Infernal Faith
04. River of Fire
05. Chaotic
06. Nicht Mehr
07. Distorted Dogmas
08. Profanis Thanatos
09. Nebular Winds
10. Victims
******************************
Total playing time: 44:34



Extended info


Technical info
(IMG:http://metalarea.org/images/spectrogram/2018_Jan/6acc225df02cb0afd131661e4e9032fc.png)
Input File: 03 Infernal Faith.mp3
Channels : 2
Sample Rate : 44100
Precision : 16-bit
Duration : 00:04:41.21 = 12401405 samples = 21090.8 CDDA sectors
File Size : 11.4M
Bit Rate : 323k
Sample Encoding: MPEG audio (layer I, II or III)
Comments :
Title=Infernal Faith
Artist=Infernal Faith
Album=Dehumanized
Tracknumber=3/10
Year=2018
Genre=9
Discnumber=1/1



Register


Вернуться к началу страницы
  Insert nick Quick quote
+Цитировать сообщение
 
Создать новую тему
Replies (1 - 2)
post Jan 11 2018, 18:59:33
Post #2

Правь статус, ####!111
**************
Group: Металариец
Posts: 12,222
Releases: 8827
From: Г.Харьков
On Forums: 5 years 9 months
Thanks: 141385 time(s)
Unknown


Register


Thanks:
Вернуться к началу страницы
  Insert nick Quick quote
+Цитировать сообщение
post Jan 11 2018, 20:47:58
Post #3

hearer & reader
**************
Group: Металариец
Posts: 5,995
Releases: 78
From: Moscow
On Forums: 10 years 5 months
Thanks: 6220 time(s)
Russian Federation



ох
Вернуться к началу страницы
  Insert nick Quick quote
+Цитировать сообщение

ОтветитьСоздать новую тему
1 User(s) are reading this topic (1 Guests and 0 Anonymous Users)
0 Members:

 



- Lo-Fi Version Support form
Copyrights and abuse reports form
Time is now: 24th February 2018 - 07:17:21