Welcome Guest ( Log In | Register )

> Mahara - Gates Of Perception, Pt. 1 [ep] (2018), Progressive Metal
post Jan 11 2018, 15:45:53
Post #1

Serial Uploader
Group Icon
Group: V.I.P
Posts: 32,483
Releases: 30777
From: Lithuania
On Forums: 9 years 11 months
Thanks: 353470 time(s)
Lithuania


(IMG:https://metalarea.org/images/audiocovers/2018_Jan/acov_tid300410_thumb.jpg)

*Artist: Mahara
*Album: Gates Of Perception, Pt. 1 [ep]
*Year: 2018
*Genre: Progressive Metal
*Country: France (IMG:https://metalarea.org/forum/style_images/flags/France.png)
*Format: mp3@CBR320kbps
*Size: 69MB

Tracklist:
01. Tvashtar
02. Virtual Kingdom
03. Back From Arkhenar
04. Collapse Countdown
05. Confinement, In Winter
******************************
Total playing time: 29:59



Technical info
(IMG:https://metalarea.org/images/spectrogram/2018_Jan/4fa4cbd9a38ebba2200578f87bf7abba.png)
Input File: 02. Virtual Kingdom.mp3
Channels : 2
Sample Rate : 44100
Precision : 16-bit
Duration : 00:05:40.52 = 15016712 samples = 25538.6 CDDA sectors
File Size : 13.7M
Bit Rate : 323k
Sample Encoding: MPEG audio (layer I, II or III)
Comments :
Title=Virtual Kingdom
Artist=Mahara
Album=Gates of Perception, Pt. 1
Tracknumber=2/5
Year=2018
Genre=9
Discnumber=1/1



Register


Вернуться к началу страницы
  Insert nick Quick quote
+Цитировать сообщение
 
Создать новую тему
Replies (1 - 1)
post Jan 12 2018, 03:32:28
Post #2

Правь статус, ####!111
**************
Group: Металариец
Posts: 2,361
Releases: 11
From: Canada
On Forums: 10 years 11 months
Thanks: 1477 time(s)
Canada


Вернуться к началу страницы
  Insert nick Quick quote
+Цитировать сообщение

ОтветитьСоздать новую тему
1 User(s) are reading this topic (1 Guests and 0 Anonymous Users)
0 Members:

 



- Lo-Fi Version Support form
Copyrights and abuse reports form
Time is now: 24th May 2018 - 14:30:14