Welcome Guest ( Log In | Register )

> И неформату есть предел.

Рэп/хип-хоп/шансон/поп удаляются. Для них есть свои порталы.

> Grunt - Castrate The Illusionist (2018), Power Electronics (D24)
post Jan 11 2018, 15:55:01
Post #1

As Above, so Below
***********
Group: Металариец
Posts: 1,862
Releases: 17
On Forums: 8 years 11 months
Thanks: 3695 time(s)
Russian Federation


(IMG:http://metalarea.org/images/audiocovers/2018_Jan/acov_tid300411_thumb.jpg)

*Artist: Grunt
*Album: Castrate The Illusionist
*Year: 2018
*Genre: Power Electronics
*Country: Finland (IMG:http://metalarea.org/forum/style_images/flags/Finland.png)
*Format: mp3@CBR320kbps
*Size: 97MB

Tracklist:
1. Castrate The Illusionist 03:06
2. Hunting Within Civilization 04:00
3. The Iron Curtain Of Discreet Silence 04:06
4. Human Storage 02:05
5. Purge Of Violence 03:07
6. Quacksalver Of Dying Breed 03:32
7. Judas Cradle 03:08
8. Panacea 04:31
9. No Longer Ours 05:31
10. Scavenger's Daughter 02:57
11. Choir of Corpses 03:23
******************************
Total playing time: 39:26



Extended info
This path of recent 10 years Grunt focused mostly on creation of coherent albums. Each album has had its own character, yet often continuation of sound and themes of the previous one. Three years between the albums often spent on smaller releases and extensive amount of live gigs.
”Castrate The Illusionist” album represents both, sonic rawness of direct live-on-tape recordings as well as obsessive care on small detail. 40 minute album consists of 11 tracks, making most of them short, loaded with strong impact what leaves one hunger for more. Sound combines traditions of experimental electronics to fierce power electronics and industrial noise, aiming to fusion of interesting textures and details without losing ripping violent force of dark side of noise.
Freak Animal Records.


Technical info
(IMG:http://metalarea.org/images/spectrogram/2018_Jan/e0b193157b4f3a465446709707fff34b.png)
Input File: 02 - Hunting Within Civilization.mp3
Channels : 2
Sample Rate : 44100
Precision : 16-bit
Duration : 00:04:00.85 = 10621265 samples = 18063.4 CDDA sectors
File Size : 9.78M
Bit Rate : 325k
Sample Encoding: MPEG audio (layer I, II or III)
Comments :
Title=Hunting Within Civilization
Artist=Grunt
Album=Castrate The Illusionist
Tracknumber=02/11
Year=2018



Register


Go to the top of the page
  Insert nick Quick quote
+Quote Post
 
Start new topic
Replies (1 - 1)
post Jan 23 2018, 20:53:31
Post #2

стазис эпидерсис
**************
Group: Металариец
Posts: 2,147
Releases: 0
On Forums: 2 years 9 months
Thanks: 1293 time(s)
Unknown


замечательный атмосферный гвалт!
ярких звуков намутил здесь, имхо эффектнее 15 - ого года.
Go to the top of the page
  Insert nick Quick quote
+Quote Post

Reply to this topicStart new topic
1 User(s) are reading this topic (1 Guests and 0 Anonymous Users)
0 Members:

 



- Lo-Fi Version Support form
Copyrights and abuse reports form
Time is now: 21st November 2018 - 13:31:52