Welcome Guest ( Log In | Register )

> Scoredatura - Honest Oblivion (2018), Instrumental/Progressive/Jazz-Metal
post Jan 11 2018, 15:59:03
Post #1

Serial Uploader
Group Icon
Group: V.I.P
Posts: 32,484
Releases: 30777
From: Lithuania
On Forums: 9 years 11 months
Thanks: 353470 time(s)
Lithuania


(IMG:https://metalarea.org/images/audiocovers/2018_Jan/acov_tid300412_thumb.jpg)

*Artist: Scoredatura
*Album: Honest Oblivion
*Year: 2018
*Genre: Instrumental/Progressive/Jazz-Metal
*Country: Australia (IMG:https://metalarea.org/forum/style_images/flags/Australia.png)
*Format: mp3@CBR320kbps
*Size: 148MB

Tracklist:
01. Kanangra 07:23
02. Always The Same 05:23
03. Malign In Line 05:30
04. Big Blind 06:23
05. Asilon 07:18
06. Must Just 07:58
07. Brookie Hill 06:12
08. Nae 08:28
09. Honest Oblivion 09:14
******************************
Total playing time: 1:03:49



(IMG:https://metalarea.org/images/youtube.png)

Technical info
(IMG:https://metalarea.org/images/spectrogram/2018_Jan/c6c38a36debddaa6bac4b0cba108e7d0.png)
Input File: 02. Always the Same.mp3
Channels : 2
Sample Rate : 44100
Precision : 16-bit
Duration : 00:05:23.22 = 14254002 samples = 24241.5 CDDA sectors
File Size : 13.1M
Bit Rate : 325k
Sample Encoding: MPEG audio (layer I, II or III)
Comments :
Title=Always the Same
Artist=Scoredatura
Album=Honest Oblivion
Tracknumber=2/9
Year=2018
Genre=9
Discnumber=1/1



Register


Вернуться к началу страницы
  Insert nick Quick quote
+Цитировать сообщение
 
Создать новую тему
Replies (1 - 4)
post Jan 12 2018, 16:13:53
Post #2

Четыре Литра
****
Group: Металариец
Posts: 376
Releases: 0
On Forums: 11 years 4 months
Thanks: 48 time(s)
Russian Federation


Какой джаз метал???Сколько альбом не проматывал,одно и то же - мат рифы с соляком.И так на протяжении всего альбома - мат рифы+соляк.Одна большая композиция.
Вернуться к началу страницы
  Insert nick Quick quote
+Цитировать сообщение
post Jan 12 2018, 16:34:32
Post #3

Аннигилятор пивА
Group Icon
Group: V.I.P
Posts: 46,692
Releases: 14016
From: Koenigsberg - TILZIT
On Forums: 11 years 11 months
Thanks: 310876 time(s)
Russian Federation


на Руси этот джазз джжентом зовется


Thanks:
(1) Ghostb,
Вернуться к началу страницы
  Insert nick Quick quote
+Цитировать сообщение
post Jan 18 2018, 14:51:28
Post #4

Четыре Литра
****
Group: Металариец
Posts: 376
Releases: 0
On Forums: 11 years 4 months
Thanks: 48 time(s)
Russian Federation


ЦИТАТА(aesteticvice @ Jan 12 2018, 19:34:32) *
на Руси этот джазз джжентом зовется


Нетутамджаза
Вернуться к началу страницы
  Insert nick Quick quote
+Цитировать сообщение
post May 1 2018, 14:59:37
Post #5

brutalcesar
**************
Group: Металариец
Posts: 17,501
Releases: 67
From: Рязань
On Forums: 9 years 4 months
Thanks: 8639 time(s)
Russian Federation


Register


Thanks:
(1) gikaki,
Вернуться к началу страницы
  Insert nick Quick quote
+Цитировать сообщение

ОтветитьСоздать новую тему
1 User(s) are reading this topic (1 Guests and 0 Anonymous Users)
0 Members:

 



- Lo-Fi Version Support form
Copyrights and abuse reports form
Time is now: 24th May 2018 - 14:33:04