Welcome Guest ( Log In | Register )

 
ОтветитьСоздать новую тему
> Almost Dead - Lay Me Down To Waste (2018), Thrash/Groove Metal (D4)
post Jan 11 2018, 16:05:13
Post #1

Serial Uploader
Group Icon
Group: V.I.P
Posts: 32,484
Releases: 30777
From: Lithuania
On Forums: 9 years 11 months
Thanks: 353470 time(s)
Lithuania


(IMG:https://metalarea.org/images/audiocovers/2018_Jan/acov_tid300413_thumb.jpg)

*Artist: Almost Dead
*Album: Lay Me Down To Waste
*Year: 2018
*Genre: Thrash/Groove Metal
*Country: United States (IMG:https://metalarea.org/forum/style_images/flags/United%20States.png)
*Format: mp3@CBR320kbps
*Size: 76MB

Tracklist:
01. Dysmorphia
02. Lay Me Down To Waste
03. Shot To The Head
04. Why Am I Alive?
05. Alive In You
06. All That I Despise
07. Deadman
08. Trash Talk
09. Awol
10. Kill Or Be Killed
******************************
Total playing time: 32:48




Technical info
(IMG:https://metalarea.org/images/spectrogram/2018_Jan/bbf9e446a06405717ac6a323cee5ce8e.png)
Input File: 03. Shot to the Head.mp3
Channels : 2
Sample Rate : 44100
Precision : 16-bit
Duration : 00:03:32.97 = 9392109 samples = 15973 CDDA sectors
File Size : 8.63M
Bit Rate : 324k
Sample Encoding: MPEG audio (layer I, II or III)
Comments :
Title=Shot to the Head
Artist=Almost Dead
Album=Lay Me Down to Waste
Tracknumber=3/10
Year=2018
Genre=9
Discnumber=1/1



Register


Вернуться к началу страницы
  Insert nick Quick quote
+Цитировать сообщение

ОтветитьСоздать новую тему
1 User(s) are reading this topic (1 Guests and 0 Anonymous Users)
0 Members:

 



- Lo-Fi Version Support form
Copyrights and abuse reports form
Time is now: 24th May 2018 - 14:32:48