Welcome Guest ( Log In | Register )

> Kozh Dall Division - Memories (2018), Progressive Thrash/Death Metal
post Jan 11 2018, 16:12:04
Post #1

Serial Uploader
Group Icon
Group: V.I.P
Posts: 32,484
Releases: 30777
From: Lithuania
On Forums: 9 years 11 months
Thanks: 353470 time(s)
Lithuania


(IMG:https://metalarea.org/images/audiocovers/2018_Jan/acov_tid300414_thumb.jpg)

*Artist: Kozh Dall Division
*Album: Memories
*Year: 2018
*Genre: Progressive Thrash/Death Metal
*Country: France (IMG:https://metalarea.org/forum/style_images/flags/France.png)
*Format: mp3@CBR320kbps
*Size: 240MB

Tracklist:
01. Living Parasite
02. Narcosis
03. Sacrificial Rite
04. Fight Or Die
05. Read In Me
06. Welcome To Death Land
07. Lose One's Grip
08. Time Shadows
09. Blanc Seing
10. We Are Kozh Dall Division
11. Schizophrenia
12. Fading Light
13. Confusion
14. Pseudomonarchia Daemonium
15. Life On The Rope
16. Your God
17. THE 5th Element
18. Page Blanche
19. Imperial March
20. We Are Kozh Dall
21. Need for Scream
22. Born In A Massgrave
23. Valley Of Lepers
24. Sauveurs Bourreaux
25. Bipolaire
26. Sommeil
27. MГ©moire
******************************
Total playing time: 1:44:49



Technical info
(IMG:https://metalarea.org/images/spectrogram/2018_Jan/d222d42bdc1448ca9b20bab0866a22aa.png)
Input File: 1 Pseudomonarchia Daemonium (feat. Benoit Laurence & Laurent Hauet).mp3
Channels : 2
Sample Rate : 44100
Precision : 16-bit
Duration : 00:03:48.60 = 10081084 samples = 17144.7 CDDA sectors
File Size : 9.25M
Bit Rate : 324k
Sample Encoding: MPEG audio (layer I, II or III)
Comments :
Title=Pseudomonarchia Daemonium (feat. Benoit Laurence & Laurent Hauet)
Artist=Kozh Dall Division
Album=Memories
Tracknumber=1/14
Year=2018
Genre=9
Discnumber=2/2



Register


Вернуться к началу страницы
  Insert nick Quick quote
+Цитировать сообщение
 
Создать новую тему
Replies (1 - 1)
post May 1 2018, 15:02:59
Post #2

brutalcesar
**************
Group: Металариец
Posts: 17,501
Releases: 67
From: Рязань
On Forums: 9 years 4 months
Thanks: 8639 time(s)
Russian Federation


Хрень!
Вернуться к началу страницы
  Insert nick Quick quote
+Цитировать сообщение

ОтветитьСоздать новую тему
1 User(s) are reading this topic (1 Guests and 0 Anonymous Users)
0 Members:

 



- Lo-Fi Version Support form
Copyrights and abuse reports form
Time is now: 24th May 2018 - 14:34:33