Welcome Guest ( Log In | Register )

> Forum rules / Правила раздела

Here go releases which can't go to New releases forums due lack of information, stolen links or incorrect data and just founded in other sites links with minimum info. Reissue of this releases through Add release form with added/corrected data, info and own links highly welcomed.

Сюда уходят релизы, не пропущенные в основные релизные форумы по причинам отсутствия, недостаточности или неверности/некорректности сопровождающей информации, содержащие ссылки, указывающие на файлы, залитые не автором темы, а так же просто найденные где-то ссылки с минимумом информации. Переоформление тем отсюда через форму Добавления релиза с перезаливкой ссылок крайне приветствуется.

 
Reply to this topicStart new topic
> Rodent - Summer In Space (Bright Side Of Life) (2018), Thrash Metal/Crossover
post Jan 11 2018, 15:20:38
Post #1

Правь статус, ####!111
**************
Group: Металариец
Posts: 14,621
Releases: 10089
From: Г.Харьков
On Forums: 6 years 5 months
Thanks: 166260 time(s)
Unknown


(IMG:http://metalarea.org/images/audiocovers/2018_Jan/acov_tid300402_thumb.jpg)

*Artist: Rodent
*Album: Summer In Space (Bright Side Of Life)
*Year: 2018
*Genre: Thrash Metal/Crossover
*Country: Germany (IMG:http://metalarea.org/forum/style_images/flags/Germany.png)
*Format: mp3@CBR320kbps
*Size: 95MB

Tracklist:
01. Welcome Home Thrasher
02. Rodents Still Thrash!
03. Cruisin' the Canalisation
04. Anarchy in the Universe
05. Smell a Rat
06. Vsauced
07. Death Is Fun
08. Revolution Business
09. Planet Sunshine
10. Ardilla Loca
11. Helloweed
12. TxSxBx
13. Webcircus.haha (feat. Hänz Hazard)
14. Love Is Lifting Us (feat. Tom Exa)
******************************
Total playing time: 44:34




Technical info
(IMG:http://metalarea.org/images/spectrogram/2018_Jan/e2e0ca1a5e4c11e953064d692df9c62f.png)
Input File: 3 Cruisin' the Canalisation.mp3
Channels : 2
Sample Rate : 44100
Precision : 16-bit
Duration : 00:03:23.15 = 8958915 samples = 15236.2 CDDA sectors
File Size : 8.28M
Bit Rate : 326k
Sample Encoding: MPEG audio (layer I, II or III)
Comments :
Title=Cruisin' the Canalisation
Artist=Rodent
Album=Summer in Space (Bright Side of Life)
Tracknumber=3/14
Year=2018
Genre=9
Discnumber=1/1



Register


Go to the top of the page
  Insert nick Quick quote
+Quote Post

Reply to this topicStart new topic
1 User(s) are reading this topic (1 Guests and 0 Anonymous Users)
0 Members:

 



- Lo-Fi Version Support form
Copyrights and abuse reports form
Time is now: 23rd October 2018 - 10:09:38