Welcome Guest ( Log In | Register )

> Perky Macabre - Grave Wax [ep] (2018), Grindcore (D31)
post Jan 11 2018, 16:55:40
Post #1

Serial Uploader
Group Icon
Group: V.I.P
Posts: 32,443
Releases: 30748
From: Lithuania
On Forums: 9 years 11 months
Thanks: 353236 time(s)
Lithuania


(IMG:https://metalarea.org/images/audiocovers/2018_Jan/acov_tid300416_thumb.jpg)

*Artist: Perky Macabre
*Album: Grave Wax [ep]
*Year: 2018
*Genre: Grindcore
*Country: United States (IMG:https://metalarea.org/forum/style_images/flags/United%20States.png)
*Format: mp3@VBR259kbps
*Size: 3MB

Tracklist:
01. Worms 00:11
02. Rotten Taste 00:10
03. Eat The Dead 00:40
04. Drown In Disgust 00:17
05. Infested Flesh 00:13
******************************
Total playing time: 1:31



Technical info
(IMG:https://metalarea.org/images/spectrogram/2018_Jan/cbebe45179c477c2c36bfbaa354c5258.png)
Input File: 02. Rotten Taste.mp3
Channels : 2
Sample Rate : 44100
Precision : 16-bit
Duration : 00:00:10.66 = 469974 samples = 799.276 CDDA sectors
File Size : 443k
Bit Rate : 332k
Sample Encoding: MPEG audio (layer I, II or III)
Comments :
Title=Rotten Taste
Artist=Perky Macabre
Album=Grave Wax
Tracknumber=2
Year=2018



Register


Thanks:
Вернуться к началу страницы
  Insert nick Quick quote
+Цитировать сообщение
 
Создать новую тему
Replies (1 - 2)
post Jan 11 2018, 20:20:22
Post #2
BAN
Banned till
May 22 2018, 16:32:46



31-й релиз как никак!
Вернуться к началу страницы
  Insert nick Quick quote
+Цитировать сообщение
post Jan 11 2018, 20:51:08
Post #3

Три Литра
***
Group: Завсегдатай
Posts: 292
Releases: 0
On Forums: 10 years 3 months
Thanks: 153 time(s)
Russian Federation


ИТАК ВРЕМЕНИ НЕТ И ЕЩЕ 1,5 часа слушать (IMG:style_emoticons/default/6.gif)
Вернуться к началу страницы
  Insert nick Quick quote
+Цитировать сообщение

ОтветитьСоздать новую тему
1 User(s) are reading this topic (1 Guests and 0 Anonymous Users)
0 Members:

 



- Lo-Fi Version Support form
Copyrights and abuse reports form
Time is now: 21st May 2018 - 16:13:30