Welcome Guest ( Log In | Register )

 
ОтветитьСоздать новую тему
> Sick Society - Scripture Of Defiance (2018), Brutal Death Metal
post Jan 11 2018, 18:06:42
Post #1

Правь статус, ####!111
**************
Group: Металариец
Posts: 13,016
Releases: 9249
From: Г.Харьков
On Forums: 6 years 1 week
Thanks: 150342 time(s)
Unknown


(IMG:http://metalarea.org/images/audiocovers/2018_Jan/acov_tid300419_thumb.jpg)

*Artist: Sick Society
*Album: Scripture Of Defiance
*Year: 2018
*Genre: Brutal Death Metal
*Country: Malaysia (IMG:http://metalarea.org/forum/style_images/flags/Malaysia.png)
*Format: mp3@CBR320kbps
*Size: 75MB

Tracklist:
1. Purification Of The Parallels
2. Kiblat Kiri
3. Archangelical Autopsy
4. Bestial Thy Abominations
5. Psychosadistic Realms
6. Impulsive Dismemberment
7. Empathy Chaos
8. Renggang Nyawa
9. Bilik Akhir
******************************
Total playing time: 33:05



Technical info
(IMG:http://metalarea.org/images/spectrogram/2018_Jan/a6a115807b9f76d67bc5f4b99e978d8e.png)
Input File: 02. Kiblat Kiri.mp3
Channels : 2
Sample Rate : 44100
Precision : 16-bit
Duration : 00:04:45.10 = 12573086 samples = 21382.8 CDDA sectors
File Size : 11.4M
Bit Rate : 320k
Sample Encoding: MPEG audio (layer I, II or III)
Comments :
Title=Kiblat Kiri
Artist=Sick Society
Album=Scripture Of Defiance
Tracknumber=2
Year=2018



Register


Вернуться к началу страницы
  Insert nick Quick quote
+Цитировать сообщение

ОтветитьСоздать новую тему
2 User(s) are reading this topic (2 Guests and 0 Anonymous Users)
0 Members:

 



- Lo-Fi Version Support form
Copyrights and abuse reports form
Time is now: 24th May 2018 - 14:47:29