Welcome Guest ( Log In | Register )

> Zenek - Pozdro Dla Kumatych (2018), Groove Metal (D4)
post Jan 11 2018, 19:09:56
Post #1

Шесть Литров
******
Group: Металариец
Posts: 645
Releases: 227
From: Саранск
On Forums: 7 years 1 week
Thanks: 1698 time(s)
Russian Federation


(IMG:https://metalarea.org/images/audiocovers/2018_Jan/acov_tid300422_thumb.jpg)

*Artist: Zenek
*Album: Pozdro Dla Kumatych
*Year: 2018
*Genre: Groove Metal
*Country: Poland (IMG:https://metalarea.org/forum/style_images/flags/Poland.png)
*Format: mp3@CBR320kbps
*Size: 99MB

Tracklist:
01. Zajebisty
02. Świrusek
03. Pozdro dla kumatych (jeśli jesteś pojebany)
04. Nie potrzeba stóp, żeby tańczyć
05. Prawo do wolności
06. Serce myszy
07. Hakuna matata
08. Bajeczki
09. Dobranoc
******************************
Total playing time: 43:15

(IMG:https://metalarea.org/images/youtube.png)

Technical info
(IMG:https://metalarea.org/images/spectrogram/2018_Jan/5724cdc24d35ff475f6164e883ca0f03.png)
Input File: 06 – Serce myszy.mp3
Channels : 2
Sample Rate : 44100
Precision : 16-bit
Duration : 00:05:55.31 = 15669171 samples = 26648.2 CDDA sectors
File Size : 14.2M
Bit Rate : 320k
Sample Encoding: MPEG audio (layer I, II or III)



Register


Thanks:
Вернуться к началу страницы
  Insert nick Quick quote
+Цитировать сообщение
 
Создать новую тему
Replies (1 - 1)
post Jan 13 2018, 07:54:42
Post #2

TomheT
**************
Group: Металариец
Posts: 4,175
Releases: 75
From: Малоярославец
On Forums: 10 years 1 month
Thanks: 16345 time(s)
Russian Federation


прописал теги,мож надо кому (IMG:style_emoticons/default/bye.gif) with tags
Register


Thanks:
(1) Wolfera,
Вернуться к началу страницы
  Insert nick Quick quote
+Цитировать сообщение

ОтветитьСоздать новую тему
2 User(s) are reading this topic (2 Guests and 0 Anonymous Users)
0 Members:

 



- Lo-Fi Version Support form
Copyrights and abuse reports form
Time is now: 20th May 2018 - 14:55:16