Welcome Guest ( Log In | Register )

 
ОтветитьСоздать новую тему
> Akakor - Akakor (2017), Technical Death Metal
post Jan 11 2018, 20:28:57
Post #1

Аннигилятор пивА
Group Icon
Group: V.I.P
Posts: 46,692
Releases: 14016
From: Koenigsberg - TILZIT
On Forums: 11 years 11 months
Thanks: 310876 time(s)
Russian Federation


(IMG:https://metalarea.org/images/audiocovers/2018_Jan/acov_tid300423_thumb.jpg)

*Artist: Akakor
*Album: Akakor
*Year: 2017
*Genre: Technical Death Metal
*Country: Canada (IMG:https://metalarea.org/forum/style_images/flags/Canada.png)
*Format: mp3@CBR320kbps
*Size: 85MB

Tracklist:
01. Twin Obelisk
02. Codex
03. Intent Divine
04. Consent To Slavery
05. New Song
06. Human Sacrifice
07. Instrumental
08. Perceived To Be
09. Psychotropic
10. Recycled
11. To Evolve
******************************
Total playing time: 36:00




Extended info
8 years ago today, we almost died... 6 years ago we started a recording, we disbanded 5 years ago and today we release the instrumental version of our unreleased album. We were Akakor, this was us.

Brian Gillingham (Drums)
Craig Reaburn (Guitar)
Eliane Gazzard (Bass)
Rory Babkirk (Guitar)
Amped, mixed, mastered by Colin Marston


Technical info
(IMG:https://metalarea.org/images/spectrogram/2018_Jan/7b7d5dcaa0ef7cf3799534bd97bdd3c2.png)
Input File: AKAKOR - Akakor - 02 Codex.mp3
Channels : 2
Sample Rate : 44100
Precision : 16-bit
Duration : 00:03:46.16 = 9973788 samples = 16962.2 CDDA sectors
File Size : 9.13M
Bit Rate : 323k
Sample Encoding: MPEG audio (layer I, II or III)
Comments :
Title=Codex
Artist=AKAKOR
Album=Akakor
Tracknumber=2
Year=2017



Register


Вернуться к началу страницы
  Insert nick Quick quote
+Цитировать сообщение

ОтветитьСоздать новую тему
2 User(s) are reading this topic (2 Guests and 0 Anonymous Users)
0 Members:

 



- Lo-Fi Version Support form
Copyrights and abuse reports form
Time is now: 24th May 2018 - 14:51:39