Welcome Guest ( Log In | Register )

> И неформату есть предел.

Рэп/хип-хоп/шансон/поп удаляются. Для них есть свои порталы.

> Mantus - Staub & Asche (2018), Symphonic Gothic Metal/Darkwave (D22)
post Jan 11 2018, 20:56:40
Post #1

Аннигилятор пивА
Group Icon
Group: V.I.P
Posts: 48,086
Releases: 14589
From: Koenigsberg - TILZIT
On Forums: 12 years 2 months
Thanks: 321139 time(s)
Russian Federation


(IMG:https://metalarea.org/images/audiocovers/2018_Jan/acov_tid300424_thumb.jpg)

*Artist: Mantus
*Album: Staub & Asche
*Year: 2018
*Genre: Symphonic Gothic Metal/Darkwave
*Country: Germany (IMG:https://metalarea.org/forum/style_images/flags/Germany.png)
*Format: mp3@CBR320kbps
*Size: 103MB

Tracklist:
01. Im Innern
02. Phosphor
03. Krieger
04. Frei in Gedanken
05. Poet
06. Fremd
07. Wir Sind die Nacht
08. Melancholische Unruhe
09. Liebe
10. Natur und Schmerz
11. Alles Brennt
12. Weib und Kalt
******************************
Total playing time: 49:35



Extended info





Technical info
(IMG:https://metalarea.org/images/spectrogram/2018_Jan/3e03eecff9da360222b0a6c8bd3f214f.png)
Input File: 04 Frei in Gedanken.mp3
Channels : 2
Sample Rate : 44100
Precision : 16-bit
Duration : 00:03:46.85 = 10003865 samples = 17013.4 CDDA sectors
File Size : 9.15M
Bit Rate : 323k
Sample Encoding: MPEG audio (layer I, II or III)
Comments :
Title=Frei in Gedanken
Artist=Mantus
Album=Staub & Asche
Tracknumber=4/12
Year=2018
Discnumber=1/1



Register


Go to the top of the page
  Insert nick Quick quote
+Quote Post
 
Start new topic
Replies (1 - 4)
post Jan 12 2018, 10:57:19
Post #2

Два Литра
**
Group: Завсегдатай
Posts: 171
Releases: 0
From: Вологда
On Forums: 9 years 7 months
Thanks: 41 time(s)
Russian Federation


хм, пишет
Ошибка 404
Файла не существует или он был удалён с сервера
Возможно, истек срок его хранения или в строке адреса вы набрали абракадабру.

пофиксите что ли (IMG:style_emoticons/default/pray.gif)
Go to the top of the page
  Insert nick Quick quote
+Quote Post
post Jan 12 2018, 11:47:21
Post #3

Пять Литров
*****
Group: Металариец
Posts: 453
Releases: 1
On Forums: 3 years 9 months
Thanks: 181 time(s)
Tajikistan


ЦИТАТА(natrogrii @ Jan 12 2018, 10:57:19) *
хм, пишет
Ошибка 404
Файла не существует или он был удалён с сервера
Возможно, истек срок его хранения или в строке адреса вы набрали абракадабру.

пофиксите что ли (IMG:style_emoticons/default/pray.gif)


тут есть
Register

Register


Thanks:
Go to the top of the page
  Insert nick Quick quote
+Quote Post
post Jan 12 2018, 13:06:03
Post #4

Аннигилятор пивА
Group Icon
Group: V.I.P
Posts: 48,086
Releases: 14589
From: Koenigsberg - TILZIT
On Forums: 12 years 2 months
Thanks: 321139 time(s)
Russian Federation


ЦИТАТА(natrogrii @ Jan 12 2018, 09:57:19) *
хм, пишет
Ошибка 404
Файла не существует или он был удалён с сервера
Возможно, истек срок его хранения или в строке адреса вы набрали абракадабру.

пофиксите что ли (IMG:style_emoticons/default/pray.gif)

ошибка была в файле, поправил


Thanks:
(1) natrogrii,
Go to the top of the page
  Insert nick Quick quote
+Quote Post
post Jan 15 2018, 23:07:02
Post #5

Ъ
**************
Group: Металариец
Posts: 9,116
Releases: 9
On Forums: 9 years 7 months
Thanks: 1737 time(s)
Sweden


Ни одного приличного трека, на прошлых стабильно присутствовали.
Go to the top of the page
  Insert nick Quick quote
+Quote Post

Reply to this topicStart new topic
1 User(s) are reading this topic (1 Guests and 0 Anonymous Users)
0 Members:

 



- Lo-Fi Version Support form
Copyrights and abuse reports form
Time is now: 19th August 2018 - 08:58:59