Welcome Guest ( Log In | Register )

> Djinn And Miskatonic - Even Gods Must Die (2018), Doom Metal
post Jan 11 2018, 21:28:30
Post #1

Аннигилятор пивА
Group Icon
Group: V.I.P
Posts: 48,125
Releases: 14600
From: Koenigsberg - TILZIT
On Forums: 12 years 2 months
Thanks: 321449 time(s)
Russian Federation


(IMG:https://metalarea.org/images/audiocovers/2018_Jan/acov_tid300425_thumb.jpg)

*Artist: Djinn And Miskatonic
*Album: Even Gods Must Die
*Year: 2018
*Genre: Doom Metal
*Country: India (IMG:https://metalarea.org/forum/style_images/flags/India.png)
*Format: mp3@CBR320kbps
*Size: 143MB

Tracklist:
1. I, Zombie 15:36
2. Bones Of My Brothers 09:18
3. Doombringer 09:10
4. Frost And Steel 05:36
5. Harvest of Kings 12:15
6. Hangman's Hope 10:23
******************************
Total playing time: 1:02:18




Extended info
Gautham Khandige - Vocals
Sriram Kvlteswaran - Guitar, Backing Vocals
Mushaf Nazeer - Guitar
Jayaprakash Satanmurthy - Bass (ex-Bevar Sea)
Siddharth Manorahan - Drum (Nihilus, ex-Corrode, ex-The Mechanix)


Technical info
(IMG:https://metalarea.org/images/spectrogram/2018_Jan/497255255b65819ad5cd7ddf71c7268a.png)
Input File: 04 Frost And Steel.mp3
Channels : 2
Sample Rate : 44100
Precision : 16-bit
Duration : 00:05:41.31 = 15051727 samples = 25598.2 CDDA sectors
File Size : 13.6M
Bit Rate : 320k
Sample Encoding: MPEG audio (layer I, II or III)
Comments :
Title=Frost And Steel
Artist=Djinn and Miskatonic
Album=Even Gods Must Die
Tracknumber=04
Year=2018



Register


Go to the top of the page
  Insert nick Quick quote
+Quote Post
 
Start new topic
Replies (1 - 6)
post Jan 12 2018, 09:40:41
Post #2

Detective Godzilla
**************
Group: Металариец
Posts: 2,492
Releases: 173
On Forums: 7 years 6 months
Thanks: 5042 time(s)
Russian Federation


Очень крутой альбом.


Thanks:
Go to the top of the page
  Insert nick Quick quote
+Quote Post
post Jan 12 2018, 10:29:17
Post #3

Наливай!
**************
Group: Металариец
Posts: 5,072
Releases: 27
From: Москва-Бибирево
On Forums: 10 years 5 months
Thanks: 2367 time(s)
Russian Federation




Thanks:
Go to the top of the page
  Insert nick Quick quote
+Quote Post
post Jan 12 2018, 12:48:38
Post #4

Аннигилятор пивА
Group Icon
Group: V.I.P
Posts: 48,125
Releases: 14600
From: Koenigsberg - TILZIT
On Forums: 12 years 2 months
Thanks: 321449 time(s)
Russian Federation


MIRROR
Register


Thanks:
Go to the top of the page
  Insert nick Quick quote
+Quote Post
post Jan 13 2018, 20:05:06
Post #5

Четыре Литра
****
Group: Металариец
Posts: 344
Releases: 0
From: South Of Heaven
On Forums: 11 years 3 weeks
Thanks: 108 time(s)
Ukraine


Интересный альбом , будем расслушивать дальше .
Релизёру (IMG:style_emoticons/default/9.gif)


Thanks:
Go to the top of the page
  Insert nick Quick quote
+Quote Post
post Jan 15 2018, 18:03:19
Post #6

кручу наждак
**************
Group: Металариец
Posts: 3,328
Releases: 89
From: Самара
On Forums: 8 years 3 months
Thanks: 2498 time(s)
Russian Federation


Да, надо бы расслушать. По трем трекам с бандкампа мнения составить не смог.
Go to the top of the page
  Insert nick Quick quote
+Quote Post
post Feb 2 2018, 15:14:16
Post #7

Кожаный ублюдок
**************
Group: Металариец
Posts: 2,873
Releases: 6
From: Алчевск (early) Некросибирск (now)
On Forums: 9 years 3 months
Thanks: 1612 time(s)
Russian Federation


Индусы Djinn And Miscatonic после выпуска своего отменного дебюта «Forever In The Realm» пережили целый круговорот событий, ведь за столь короткий срок банда эта успела распасться и воссоединиться вновь. На радость поклонникам продюсер (тут я могу ошибаться) выпускающего лэйбла Trancending Obscurity India сумел убедить парней не забрасывать творчество, за что ему наши искренние благодарочки и уважение.
В музыкальном плане изменения произошли конечно, но прямо вот глобальных каких-то отличий от первенца, которому в нынешнем году стукнет 5 лет, я не нашёл. Всё так же мрачно и с уклоном в эпичность сыгранный дум, скорее всего относящийся к траду. Ну и не без стоунера, как и в прошлый раз. Местами правда нынешней опус разнообразнее звучит, чем предшественник. В плане вокалов все осталось на своих местах: по большей части чистый вокал, а так же немало гроулинга, они оба хороши, как и раньше. По звуку тоже претензий нет, все прекрасно, ну на мой вкус, конечно же.
Короче всем, кто слушал в 2013-м году «Forever In The Realm» и ловил кайф ничего объяснять не нужно, а всем остальным слушать «Even Gods Must Die», но не ждать, что вкатит с первого взгляда, с дебютом это не проканало. Однозначно это один из претендентов на золото в нынешнем году! (IMG:style_emoticons/default/9.gif) (IMG:style_emoticons/default/9.gif) (IMG:style_emoticons/default/9.gif)


Go to the top of the page
  Insert nick Quick quote
+Quote Post

Reply to this topicStart new topic
1 User(s) are reading this topic (1 Guests and 0 Anonymous Users)
0 Members:

 



- Lo-Fi Version Support form
Copyrights and abuse reports form
Time is now: 22nd August 2018 - 02:23:53