Welcome Guest ( Log In | Register )

> Codedecoded - Catacombs Of Rotting Souls (2017), Technical Death Metal
post Jan 11 2018, 22:24:08
Post #1

Аннигилятор пивА
Group Icon
Group: V.I.P
Posts: 46,692
Releases: 14016
From: Koenigsberg - TILZIT
On Forums: 11 years 11 months
Thanks: 310848 time(s)
Russian Federation


(IMG:https://metalarea.org/images/audiocovers/2018_Jan/acov_tid300426_thumb.jpg)

*Artist: Codedecoded
*Album: Catacombs Of Rotting Souls
*Year: 2017
*Genre: Technical Death Metal
*Country: Greece (IMG:https://metalarea.org/forum/style_images/flags/Greece.png)
*Format: mp3@CBR320kbps
*Size: 90MB

Tracklist:
1. Dominate and Purge 04:19
2. Parasite Injection 03:09
3. Catacombs of Rotting Souls 05:37
4. Abnormality Seeker 05:51
5. Deep in the Wormhole 04:04
6. Lethargic 05:21
7. Retaliate-Eviscerate 06:01
8. Quantum Decadence 04:21
******************************
Total playing time: 38:43




Extended info


Technical info
(IMG:https://metalarea.org/images/spectrogram/2018_Jan/9894820ef30cee5d56b87edeb22ff9c3.png)
Input File: 04 - Abnormality Seeker.mp3
Channels : 2
Sample Rate : 44100
Precision : 16-bit
Duration : 00:05:51.57 = 15504017 samples = 26367.4 CDDA sectors
File Size : 14.3M
Bit Rate : 325k
Sample Encoding: MPEG audio (layer I, II or III)
Comments :
Title=Abnormality Seeker
Artist=Codedecoded
Album=Catacombs Of Rotting Souls
Tracknumber=04/08
Year=2017
Genre=Technical Brutal Death Metal



Register


Вернуться к началу страницы
  Insert nick Quick quote
+Цитировать сообщение
 
Создать новую тему
Replies (1 - 5)
post Jan 12 2018, 10:20:05
Post #2

Три Литра
***
Group: Завсегдатай
Posts: 253
Releases: 0
On Forums: 7 years 8 months
Thanks: 38 time(s)
Russian Federation


скорее какой то прогбрутал..но забавно
Вернуться к началу страницы
  Insert nick Quick quote
+Цитировать сообщение
post Jan 12 2018, 12:16:36
Post #3

hearer & reader
**************
Group: Металариец
Posts: 6,215
Releases: 81
From: Moscow
On Forums: 10 years 8 months
Thanks: 6364 time(s)
Russian Federation


ЦИТАТА(aesteticvice @ Oct 30 2014, 21:46:44) *
повторяющийся весь трэк техничный рифф не явно техникал, плюс явный модерн грувяш... дэз метал новой школы, техникал с большой натяжкой для развитого воображения, я так и не смог натянуть-развить... профанация не стоящая прослушивания полностью (IMG:style_emoticons/default/1488.gif) техникал в стиле лишний

Шикарно, ничего своего и придумывать не надо..
Вернуться к началу страницы
  Insert nick Quick quote
+Цитировать сообщение
post Jan 12 2018, 13:11:08
Post #4

Аннигилятор пивА
Group Icon
Group: V.I.P
Posts: 46,692
Releases: 14016
From: Koenigsberg - TILZIT
On Forums: 11 years 11 months
Thanks: 310848 time(s)
Russian Federation


ЦИТАТА(AHBAnep @ Jan 12 2018, 11:16:36) *
Шикарно, ничего своего и придумывать не надо..

(IMG:style_emoticons/default/fear.gif) и где ты там модерн грувяш узрел? чиста технически интересно как он у тебя выглядит
зы
по сабжу: вязкий, тягучий тех брутол, весьма оригинально и нестандартно
Вернуться к началу страницы
  Insert nick Quick quote
+Цитировать сообщение
post Jan 12 2018, 13:15:09
Post #5

Четыре Литра
****
Group: Металариец
Posts: 340
Releases: 0
From: Przemysl
On Forums: 3 years 4 months
Thanks: 246 time(s)
Poland


ЦИТАТА(AHBAnep @ Jan 12 2018, 13:16:36) *
Шикарно, ничего своего и придумывать не надо..

(IMG:style_emoticons/default/10.gif) (IMG:style_emoticons/default/5.gif)
Вернуться к началу страницы
  Insert nick Quick quote
+Цитировать сообщение
post Jan 12 2018, 13:35:01
Post #6

hearer & reader
**************
Group: Металариец
Posts: 6,215
Releases: 81
From: Moscow
On Forums: 10 years 8 months
Thanks: 6364 time(s)
Russian Federation


ЦИТАТА(aesteticvice @ Jan 12 2018, 15:11:08) *
(IMG:style_emoticons/default/fear.gif) и где ты там модерн грувяш узрел? чиста технически интересно как он у тебя выглядит

Я там? (IMG:style_emoticons/default/fear.gif) Это ты - там, глянь, кого я цитировал.
А тут - то же самое, что 3 года назад (IMG:style_emoticons/default/1488.gif)
Вернуться к началу страницы
  Insert nick Quick quote
+Цитировать сообщение

ОтветитьСоздать новую тему
1 User(s) are reading this topic (1 Guests and 0 Anonymous Users)
0 Members:

 



- Lo-Fi Version Support form
Copyrights and abuse reports form
Time is now: 21st May 2018 - 16:13:21