Welcome Guest ( Log In | Register )

> Deep Down Bellow - Everything Is Darker Than It Seems (2017), Groove Metal/Sludge
post Jan 12 2018, 04:41:34
Post #1

Правь статус, ####!111
**************
Group: Металариец
Posts: 13,957
Releases: 9737
From: Г.Харьков
On Forums: 6 years 3 months
Thanks: 159842 time(s)
Unknown


(IMG:http://metalarea.org/images/audiocovers/2018_Jan/acov_tid300427_thumb.jpg)

*Artist: Deep Down Bellow
*Album: Everything Is Darker Than It Seems
*Year: 2017
*Genre: Groove Metal/Sludge
*Country: Slovenia (IMG:http://metalarea.org/forum/style_images/flags/Slovenia.png)
*Format: mp3@CBR320kbps
*Size: 78MB

Tracklist:
1. T.L.O.M 04:22
2. Slaves of This World 04:55
3. Everything Is Darker than It Seems 04:42
4. Demon Inside 05:38
5. Trapped in Trance 04:45
6. Corridors of Self-Destruction 03:14
7. Deep 06:40
******************************
Total playing time: 34:16




Extended info
Matjaž Medveš: Guitar/Vocals
Robert Medveš: Drums
Mitja Markič: Bass
Izi: Guitar


Technical info
(IMG:http://metalarea.org/images/spectrogram/2018_Jan/025bafe7336854cf032eea06da313178.png)
Input File: 04 Demon Inside.mp3
Channels : 2
Sample Rate : 44100
Precision : 16-bit
Duration : 00:05:38.34 = 14920926 samples = 25375.7 CDDA sectors
File Size : 13.6M
Bit Rate : 321k
Sample Encoding: MPEG audio (layer I, II or III)
Comments :
Title=Demon Inside
Artist=Deep Down Bellow
Album=Everything Is Darker Than It Seems
Tracknumber=4
Year=2017



Register


Go to the top of the page
  Insert nick Quick quote
+Quote Post
 
Start new topic
Replies (1 - 1)
post Jan 14 2018, 02:01:00
Post #2

_ - = # Thrashogolic # = - _ ... а давайте поржём все вместе
**************
Group: Металариец
Posts: 20,921
Releases: 4444
From: 404
On Forums: 8 years 2 months
Thanks: 27092 time(s)
Ukraine


4. Demon Inside 05:38
Ярко напомнили Edge Of Sanity (IMG:style_emoticons/default/20.gif)

И, вот, на бендкампе прослушал из рекомендованого вот таких ещё ребят,
(мне напомнивших здешних)

(IMG:https://f4.bcbits.com/img/a1644043980_7.jpg)
Go to the top of the page
  Insert nick Quick quote
+Quote Post

Reply to this topicStart new topic
1 User(s) are reading this topic (1 Guests and 0 Anonymous Users)
0 Members:

 



- Lo-Fi Version Support form
Copyrights and abuse reports form
Time is now: 22nd August 2018 - 02:23:32