Welcome Guest ( Log In | Register )

> Chaos Inc - V.E.R.A (2017), Death Metal
post Jan 12 2018, 05:53:43
Post #1

Правь статус, ####!111
**************
Group: Металариец
Posts: 15,028
Releases: 10295
From: Г.Харьков
On Forums: 6 years 6 months
Thanks: 169992 time(s)
Unknown


(IMG:http://metalarea.org/images/audiocovers/2018_Jan/acov_tid300428_thumb.jpg)

*Artist: Chaos Inc
*Album: V.E.R.A
*Year: 2017
*Genre: Death Metal
*Country: Brazil (IMG:http://metalarea.org/forum/style_images/flags/Brazil.png)
*Format: mp3@CBR320kbps
*Size: 63MB

Tracklist:
01. Bloody Victory 02:36
02. Cosmos Echoes 02:58
03. Tormentor 03:06
04. Slaves Life 04:02
05. Phenomena 02:56
06. Despair and Pain 04:07
07. V.E.R.A 03:21
08. Vulcan Spirit 04:34
******************************
Total playing time: 27:40



Extended info
Eduardo Matos - Vocal/Bass
"Zozi" Silveira - Guitar
Maicon Alves - Drums



Technical info
(IMG:http://metalarea.org/images/spectrogram/2018_Jan/ebd8a28f3c3c20e18fcc061f9159e2b2.png)
Input File: 03 Tormentor.mp3
Channels : 2
Sample Rate : 44100
Precision : 16-bit
Duration : 00:03:06.09 = 8206437 samples = 13956.5 CDDA sectors
File Size : 7.48M
Bit Rate : 321k
Sample Encoding: MPEG audio (layer I, II or III)
Comments :
Title=Tormentor
Artist=Chaos Inc
Album=V.E.R.A
Tracknumber=3
Year=2017



Register


Go to the top of the page
  Insert nick Quick quote
+Quote Post
 
Start new topic
Replies (1 - 1)
post Jan 12 2018, 10:22:58
Post #2

Правь статус, ####!111
**************
Group: Металариец
Posts: 15,028
Releases: 10295
From: Г.Харьков
On Forums: 6 years 6 months
Thanks: 169992 time(s)
Unknown


Register


Go to the top of the page
  Insert nick Quick quote
+Quote Post

Reply to this topicStart new topic
1 User(s) are reading this topic (1 Guests and 0 Anonymous Users)
0 Members:

 



- Lo-Fi Version Support form
Copyrights and abuse reports form
Time is now: 21st November 2018 - 21:39:12