Welcome Guest ( Log In | Register )

> Iron Will - Life Is Your Labyrinth (2018), Heavy/Speed Metal
post Jan 12 2018, 07:21:24
Post #1

Аннигилятор пивА
Group Icon
Group: V.I.P
Posts: 46,692
Releases: 14016
From: Koenigsberg - TILZIT
On Forums: 11 years 11 months
Thanks: 310848 time(s)
Russian Federation


(IMG:https://metalarea.org/images/audiocovers/2018_Jan/acov_tid300429_thumb.jpg)

*Artist: Iron Will
*Album: Life Is Your Labyrinth
*Year: 2018
*Genre: Heavy/Speed Metal
*Country: United States (IMG:https://metalarea.org/forum/style_images/flags/United%20States.png)
*Format: mp3@CBR320kbps
*Size: 107MB

Tracklist:
01. Conquer On 04:04
02. Life Is Your Labyrinth 04:07
03. Nemesis 05:10
04. The Agony of Uncertainty 03:14
05. Darkness Falls Fast 04:08
06. Rising 04:59
07. The Shadow Lurks 04:22
08. The Wolf 04:18
09. Nightmares 02:45
10. The Dream 03:03
11. Your Legacy Lives On 04:59
12. The Iron Will 03:57
******************************
Total playing time: 49:06



Extended info
кодек Gogo
Rich "Berte of Prey" - Bass See also: Ravage
Al Ravage - Drums (2000-present) See also: Ravage, Steel Maid
Tony "The Metal Duke" Canillas - Vocals (2000-present)
John "The Ogre" Koziol - Guitar See also: ex-Ravage


Technical info
(IMG:https://metalarea.org/images/spectrogram/2018_Jan/1df0e28548d726eb5ba82291a21aafb2.png)
Input File: 4 The Agony of Uncertainty.mp3
Channels : 2
Sample Rate : 44100
Precision : 16-bit
Duration : 00:03:14.50 = 8577582 samples = 14587.7 CDDA sectors
File Size : 7.83M
Bit Rate : 322k
Sample Encoding: MPEG audio (layer I, II or III)
Comments :
Title=The Agony of Uncertainty
Artist=Iron Will
Album=Life Is Your Labyrinth
Tracknumber=4/12
Year=2018
Discnumber=1/1



Register


Вернуться к началу страницы
  Insert nick Quick quote
+Цитировать сообщение
 
Создать новую тему
Replies (1 - 2)
post Jan 28 2018, 19:20:45
Post #2

No More Tears
**************
Group: Металариец
Posts: 4,929
Releases: 115
From: Тбилиси, Грузия
On Forums: 11 years 9 months
Thanks: 2333 time(s)
Georgia


В превью элементы панка вкрались.
Вернуться к началу страницы
  Insert nick Quick quote
+Цитировать сообщение
post Jan 30 2018, 12:47:55
Post #3

T.I.N.D.
**************
Group: Металариец
Posts: 2,361
Releases: 62
On Forums: 9 years 2 weeks
Thanks: 1467 time(s)
Australia


https://www.youtube.com/watch?v=Efe69yaO384
Full album
Вернуться к началу страницы
  Insert nick Quick quote
+Цитировать сообщение

ОтветитьСоздать новую тему
1 User(s) are reading this topic (1 Guests and 0 Anonymous Users)
0 Members:

 



- Lo-Fi Version Support form
Copyrights and abuse reports form
Time is now: 21st May 2018 - 16:14:47