Welcome Guest ( Log In | Register )

> Releases Upload / Добавление релизов

Добавить релиз тут / Click here to add release
Рекомендованные обменники / Recommended file shares

 
ОтветитьСоздать новую тему
> Euclidean - Daybreaker [ep] (2013), Progressive Metalcore
post Jan 12 2018, 08:12:04
Post #1

Мегаманьяк
***********
Group: Металариец
Posts: 1,533
Releases: 109
From: Omsk, Siberia
On Forums: 8 years 11 months
Thanks: 2328 time(s)
Russian Federation


(IMG:http://metalarea.org/images/audiocovers/2018_Jan/acov_tid300430_thumb.jpg)

*Artist: Euclidean
*Album: Daybreaker [ep]
*Year: 2013
*Genre: Progressive Metalcore
*Country: United States (IMG:http://metalarea.org/forum/style_images/flags/United%20States.png)
*Format: mp3@CBR320kbps
*Size: 37MB

Tracklist:
1. Daybreaker 01:59
2. Alpha | Omega 03:18
3. Atmosphere 03:08
4. The Final Construct 03:48
5. Decay | Rebirth 04:01
******************************
Total playing time: 16:15



(IMG:http://metalarea.org/images/youtube.png)

Technical info
(IMG:http://metalarea.org/images/spectrogram/2018_Jan/8792f0df2ef09aaad4a4dab900f95ec6.png)
Input File: 03 Atmosphere.mp3
Channels : 2
Sample Rate : 44100
Precision : 16-bit
Duration : 00:03:08.15 = 8297459 samples = 14111.3 CDDA sectors
File Size : 7.61M
Bit Rate : 323k
Sample Encoding: MPEG audio (layer I, II or III)
Comments :
Title=Atmosphere
Artist=Euclidean
Album=Daybreaker
Tracknumber=3
Year=2013
Genre=Metalcore



Register


Thanks:
Вернуться к началу страницы
  Insert nick Quick quote
+Цитировать сообщение

ОтветитьСоздать новую тему
1 User(s) are reading this topic (1 Guests and 0 Anonymous Users)
0 Members:

 



- Lo-Fi Version Support form
Copyrights and abuse reports form
Time is now: 24th February 2018 - 07:02:24