Welcome Guest ( Log In | Register )

> Releases Upload / Добавление релизов

Добавить релиз тут / Click here to add release
Рекомендованные обменники / Recommended file shares

> Josh Dalviken - The Sword That Slays The Darkness (2018), Melodic Death/Thrash Metal
post Jan 12 2018, 12:36:21
Post #1

Serial Uploader
Group Icon
Group: V.I.P
Posts: 31,468
Releases: 29800
From: Lithuania
On Forums: 9 years 8 months
Thanks: 342154 time(s)
Lithuania


(IMG:http://metalarea.org/images/audiocovers/2018_Jan/acov_tid300432_thumb.jpg)

*Artist: Josh Dalviken
*Album: The Sword That Slays The Darkness
*Year: 2018
*Genre: Melodic Death/Thrash Metal
*Country: United Kingdom (IMG:http://metalarea.org/forum/style_images/flags/United%20Kingdom.png)
*Format: mp3@CBR320kbps
*Size: 182MB

Tracklist:
01. Champion Of The Great Tree 03:00
02. Death To Degeneracy 05:25
03. White Dawn 06:30
04. Under Blackened Wings 07:18
05. Awaken The Dreamer 08:07
06. Fearless 03:26
07. The Calamity 07:06
08. Until I Return To Your Side 08:17
09. Ranger Of The Ancient Forest 11:24
10. A Shadow Left By Time 18:00
******************************
Total playing time: 1:18:33



Technical info
(IMG:http://metalarea.org/images/spectrogram/2018_Jan/ab31f3609dc06fb8f7b55127dae9cfa1.png)
Input File: 02. Death to Degeneracy.mp3
Channels : 2
Sample Rate : 44100
Precision : 16-bit
Duration : 00:05:25.68 = 14362312 samples = 24425.7 CDDA sectors
File Size : 13.3M
Bit Rate : 326k
Sample Encoding: MPEG audio (layer I, II or III)
Comments :
Title=Death to Degeneracy
Artist=Josh Dalviken
Album=The Sword That Slays the Darkness
Tracknumber=2/10
Year=2018
Discnumber=1/1



Register


Вернуться к началу страницы
  Insert nick Quick quote
+Цитировать сообщение
 
Создать новую тему
Replies (1 - 1)
post Jan 27 2018, 17:43:12
Post #2

Перевозчик
**************
Group: Металариец
Posts: 2,650
Releases: 0
On Forums: 9 years 7 months
Thanks: 530 time(s)
Russian Federation




Вернуться к началу страницы
  Insert nick Quick quote
+Цитировать сообщение

ОтветитьСоздать новую тему
1 User(s) are reading this topic (1 Guests and 0 Anonymous Users)
0 Members:

 



- Lo-Fi Version Support form
Copyrights and abuse reports form
Time is now: 24th February 2018 - 06:59:51