Welcome Guest ( Log In | Register )

 
ОтветитьСоздать новую тему
> Bruno Sutter - Alive In Hell [live] (2017), Heavy/Groove Metal
post Jan 12 2018, 12:46:03
Post #1

Serial Uploader
Group Icon
Group: V.I.P
Posts: 32,443
Releases: 30748
From: Lithuania
On Forums: 9 years 11 months
Thanks: 353236 time(s)
Lithuania


(IMG:http://metalarea.org/images/audiocovers/2018_Jan/acov_tid300433_thumb.jpg)

*Artist: Bruno Sutter
*Album: Alive In Hell [live]
*Year: 2017
*Genre: Heavy/Groove Metal
*Country: Brazil (IMG:http://metalarea.org/forum/style_images/flags/Brazil.png)
*Format: mp3@CBR320kbps
*Size: 146MB

Tracklist:
01. Stalker
02. Gratittude
03. Facing Temptation
04. My Boss Is A Corpse
05. Socorro
06. Troll
07. Rebuilding Destruction
08. I Bloody Love To Love You
09. Haters Gonna Hate
10. Hipócrita
11. Provoke Yourself
12. The Best Singer In The World
13. Galopeira
******************************
Total playing time: 1:03:12



Technical info
(IMG:http://metalarea.org/images/spectrogram/2018_Jan/0bdde6525adcbcd8fd43adb38a4f0f67.png)
Input File: 02. Grattitude (Live).mp3
Channels : 2
Sample Rate : 44100
Precision : 16-bit
Duration : 00:04:57.64 = 13126100 samples = 22323.3 CDDA sectors
File Size : 12.1M
Bit Rate : 324k
Sample Encoding: MPEG audio (layer I, II or III)
Comments :
Title=Grattitude (Live)
Artist=Bruno Sutter
Album=Alive in Hell
Tracknumber=2/13
Year=2018
Genre=9
Discnumber=1/1



Register


Thanks:
(2) Rosen, varlam4,
Вернуться к началу страницы
  Insert nick Quick quote
+Цитировать сообщение

ОтветитьСоздать новую тему
1 User(s) are reading this topic (1 Guests and 0 Anonymous Users)
0 Members:

 



- Lo-Fi Version Support form
Copyrights and abuse reports form
Time is now: 21st May 2018 - 16:14:26