Welcome Guest ( Log In | Register )

 
ОтветитьСоздать новую тему
> Filthy Young Impalers - Pattern Blue [ep] (2018), Progressive Death/Thrash Metal
post Jan 12 2018, 13:02:34
Post #1

Serial Uploader
Group Icon
Group: V.I.P
Posts: 32,443
Releases: 30748
From: Lithuania
On Forums: 9 years 11 months
Thanks: 353236 time(s)
Lithuania


(IMG:https://metalarea.org/images/audiocovers/2018_Jan/acov_tid300434_thumb.jpg)

*Artist: Filthy Young Impalers
*Album: Pattern Blue [ep]
*Year: 2018
*Genre: Progressive Death/Thrash Metal
*Country: United States (IMG:https://metalarea.org/forum/style_images/flags/United%20States.png)
*Format: mp3@CBR320kbps
*Size: 39MB

Tracklist:
01. Paradox Lost 03:26
02. Katsuragi Syndrome 03:23
03. Tetrachromatic Hallucinations 03:17
04. Rei 04:17
05. First Impact 04:22
******************************
Total playing time: 18:45



Technical info
(IMG:https://metalarea.org/images/spectrogram/2018_Jan/eba2d00fd8cb3fc48e04d2f25af830bb.png)
Input File: 02-filthy_young_impalers-katsuragi_syndrome-a730f3e5.mp3
Channels : 2
Sample Rate : 44100
Precision : 16-bit
Duration : 00:03:23.07 = 8955475 samples = 15230.4 CDDA sectors
File Size : 8.12M
Bit Rate : 320k
Sample Encoding: MPEG audio (layer I, II or III)
Comments :
Title=Katsuragi Syndrome
Artist=Filthy Young Impalers
Album=Pattern Blue
Tracknumber=2/5
Year=2018
Genre=9



Register


Вернуться к началу страницы
  Insert nick Quick quote
+Цитировать сообщение

ОтветитьСоздать новую тему
1 User(s) are reading this topic (1 Guests and 0 Anonymous Users)
0 Members:

 



- Lo-Fi Version Support form
Copyrights and abuse reports form
Time is now: 21st May 2018 - 16:14:19