Welcome Guest ( Log In | Register )

 
Reply to this topicStart new topic
> Corpse Fucker - Meat The Corpse Fuckers [demo] (2018), Brutal Death Metal
post Jan 12 2018, 14:23:29
Post #1

Serial Uploader
Group Icon
Group: V.I.P
Posts: 32,953
Releases: 31246
From: Lithuania
On Forums: 10 years 2 months
Thanks: 357711 time(s)
Lithuania


(IMG:http://metalarea.org/images/audiocovers/2018_Jan/acov_tid300435_thumb.jpg)

*Artist: Corpse Fucker
*Album: Meat The Corpse Fuckers [demo]
*Year: 2018
*Genre: Brutal Death Metal
*Country: United States (IMG:http://metalarea.org/forum/style_images/flags/United%20States.png)
*Format: mp3@CBR320kbps
*Size: 16MB

Tracklist:
01. Meat The Corpse Fuckers 03:10
02. Embalmed In Semen 03:30
******************************
Total playing time: 6:40



(IMG:http://metalarea.org/images/youtube.png)

Technical info
(IMG:http://metalarea.org/images/spectrogram/2018_Jan/a6eec1245d859add8b1739ce11963f17.png)
Input File: 02. Embalmed In Semen.mp3
Channels : 2
Sample Rate : 44100
Precision : 16-bit
Duration : 00:03:30.10 = 9265234 samples = 15757.2 CDDA sectors
File Size : 8.60M
Bit Rate : 328k
Sample Encoding: MPEG audio (layer I, II or III)
Comments :
Title=Embalmed In Semen
Artist=Corpse Fucker
Album=Meat The Corpse Fuckers
Tracknumber=2
Year=2018



Register


Go to the top of the page
  Insert nick Quick quote
+Quote Post

Reply to this topicStart new topic
1 User(s) are reading this topic (1 Guests and 0 Anonymous Users)
0 Members:

 



- Lo-Fi Version Support form
Copyrights and abuse reports form
Time is now: 22nd August 2018 - 02:23:35