Welcome Guest ( Log In | Register )

 
Reply to this topicStart new topic
> Alex From Hell - 2012 (2012), Heavy/Thrash Metal
post Jan 12 2018, 14:33:38
Post #1

Serial Uploader
Group Icon
Group: V.I.P
Posts: 33,302
Releases: 31577
From: Lithuania
On Forums: 10 years 5 months
Thanks: 360783 time(s)
Lithuania


(IMG:https://metalarea.org/images/audiocovers/2018_Jan/acov_tid300436_thumb.jpg)

*Artist: Alex From Hell
*Album: 2012
*Year: 2012
*Genre: Heavy/Thrash Metal
*Country: United States (IMG:https://metalarea.org/forum/style_images/flags/United%20States.png)
*Format: mp3@CBR320kbps
*Size: 102MB

Tracklist:
01. My Computer Has Failed To Please Me 07:06
02. Zombie Apocolypse 04:30
03. Math 03:15
04. Everybody Bitches 04:50
05. Monkeys Are Funny 04:32
06. Lcdc 04:27
07. Ray Is The King 04:15
08. Personification Of Food 04:02
09. Flight Of The Starfish 05:25
10. Kideater 05:06
******************************
Total playing time: 47:28

Extended info
Scene-rip


Technical info
(IMG:https://metalarea.org/images/spectrogram/2018_Jan/220bc466d9bb500018a05156d4d575f5.png)
Input File: 02-alex_from_hell-zombie_apocolypse-1edff7d6.mp3
Channels : 2
Sample Rate : 44100
Precision : 16-bit
Duration : 00:04:30.76 = 11940560 samples = 20307.1 CDDA sectors
File Size : 10.8M
Bit Rate : 320k
Sample Encoding: MPEG audio (layer I, II or III)
Comments :
Title=Zombie Apocolypse
Artist=Alex from Hell
Album=2012
Tracknumber=2/10
Year=2012
Genre=9



Register


Go to the top of the page
  Insert nick Quick quote
+Quote Post

Reply to this topicStart new topic
1 User(s) are reading this topic (1 Guests and 0 Anonymous Users)
0 Members:

 



- Lo-Fi Version Support form
Copyrights and abuse reports form
Time is now: 21st November 2018 - 21:46:40