Welcome Guest ( Log In | Register )

> Releases Upload / Добавление релизов

Добавить релиз тут / Click here to add release
Рекомендованные обменники / Recommended file shares

 
ОтветитьСоздать новую тему
> Alex From Hell - The Revolt Of One-Billion Brains! (2013), Heavy/Thrash Metal
post Jan 12 2018, 14:42:30
Post #1

Serial Uploader
Group Icon
Group: V.I.P
Posts: 31,468
Releases: 29800
From: Lithuania
On Forums: 9 years 8 months
Thanks: 342154 time(s)
Lithuania


(IMG:http://metalarea.org/images/audiocovers/2018_Jan/acov_tid300437_thumb.jpg)

*Artist: Alex From Hell
*Album: The Revolt Of One-Billion Brains!
*Year: 2013
*Genre: Heavy/Thrash Metal
*Country: United States (IMG:http://metalarea.org/forum/style_images/flags/United%20States.png)
*Format: mp3@CBR320kbps
*Size: 82MB

Tracklist:
01. Hungover 04:51
02. An Implausible Truth 03:59
03. Cui Bono 04:07
04. CDCs 04:11
05. Traveling Carnival Of Death 05:01
06. Talking In Circles 05:43
07. The Revolt Of One Billion Brains 05:08
08. Goose Goose Duck 05:01
******************************
Total playing time: 38:01

Extended info
Scene-rip


Technical info
(IMG:http://metalarea.org/images/spectrogram/2018_Jan/d7d7d5bcac6105441802a22abf16602a.png)
Input File: 02-alex_from_hell-an_implausible_truth-14731106.mp3
Channels : 2
Sample Rate : 44100
Precision : 16-bit
Duration : 00:03:59.86 = 10577606 samples = 17989.1 CDDA sectors
File Size : 9.60M
Bit Rate : 320k
Sample Encoding: MPEG audio (layer I, II or III)
Comments :
Title=An Implausible Truth
Artist=Alex from Hell
Album=The Revolt of One Billion Brains
Tracknumber=2/8
Year=2013
Genre=9



Register


Вернуться к началу страницы
  Insert nick Quick quote
+Цитировать сообщение

ОтветитьСоздать новую тему
1 User(s) are reading this topic (1 Guests and 0 Anonymous Users)
0 Members:

 



- Lo-Fi Version Support form
Copyrights and abuse reports form
Time is now: 24th February 2018 - 06:49:03