Welcome Guest ( Log In | Register )

 
Reply to this topicStart new topic
> Alex From Hell - Release The Serpent/I Am Powerful [compilation] (2014), Heavy/Thrash Metal
post Jan 12 2018, 14:56:04
Post #1

Serial Uploader
Group Icon
Group: V.I.P
Posts: 32,953
Releases: 31246
From: Lithuania
On Forums: 10 years 2 months
Thanks: 357711 time(s)
Lithuania


(IMG:https://metalarea.org/images/audiocovers/2018_Jan/acov_tid300438_thumb.jpg)

*Artist: Alex From Hell
*Album: Release The Serpent/I Am Powerful [compilation]
*Year: 2014
*Genre: Heavy/Thrash Metal
*Country: United States (IMG:https://metalarea.org/forum/style_images/flags/United%20States.png)
*Format: mp3@CBR320kbps
*Size: 110MB

Tracklist:
01. Vecinos 04:55
02. Puke Boy And Nap Girl 04:09
03. The Alux 04:18
04. Desperate For Conditioner 02:02
05. Release The Serpent 03:55
06. Tour Guide Tyler 04:41
07. Someplace Warm 03:50
08. Death Rides Sparkles Fantastic 04:03
09. Lost In The Move 04:14
10. Walking Timebomb 03:38
11. Puke Boy II: I Am Cat Pig 03:43
12. I Am Powerful 07:10
******************************
Total playing time: 50:38

Extended info
Scene-rip


Technical info
(IMG:https://metalarea.org/images/spectrogram/2018_Jan/827ef1f1741be2df00daa30de514e851.png)
Input File: 09-alex_from_hell-lost_in_the_move-b827d2f8.mp3
Channels : 2
Sample Rate : 44100
Precision : 16-bit
Duration : 00:04:14.46 = 11221642 samples = 19084.4 CDDA sectors
File Size : 10.2M
Bit Rate : 320k
Sample Encoding: MPEG audio (layer I, II or III)
Comments :
Title=Lost in the Move
Artist=Alex from Hell
Album=Release the Serpent/ I am Powerful
Tracknumber=9/12
Year=2014
Genre=9



Register


Go to the top of the page
  Insert nick Quick quote
+Quote Post

Reply to this topicStart new topic
1 User(s) are reading this topic (1 Guests and 0 Anonymous Users)
0 Members:

 



- Lo-Fi Version Support form
Copyrights and abuse reports form
Time is now: 22nd August 2018 - 02:23:25