Welcome Guest ( Log In | Register )

> Releases Upload / Добавление релизов

Добавить релиз тут / Click here to add release
Рекомендованные обменники / Recommended file shares

 
ОтветитьСоздать новую тему
> Alex From Hell - Moths/Pimples Of God [ep] (2014), Heavy/Thrash Metal
post Jan 12 2018, 15:05:42
Post #1

Serial Uploader
Group Icon
Group: V.I.P
Posts: 31,468
Releases: 29800
From: Lithuania
On Forums: 9 years 8 months
Thanks: 342154 time(s)
Lithuania


(IMG:http://metalarea.org/images/audiocovers/2018_Jan/acov_tid300439_thumb.jpg)

*Artist: Alex From Hell
*Album: Moths/Pimples Of God [ep]
*Year: 2014
*Genre: Heavy/Thrash Metal
*Country: United States (IMG:http://metalarea.org/forum/style_images/flags/United%20States.png)
*Format: mp3@CBR320kbps
*Size: 54MB

Tracklist:
01. The Song Song 04:06
02. Moths 05:36
03. Bass Solo 00:32
04. Fire Ants 04:19
05. Bowling 04:10
06. Pimples Of God 03:16
07. John Vs The Evil Clowns 03:15
******************************
Total playing time: 25:14

Extended info
Scene-rip


Technical info
(IMG:http://metalarea.org/images/spectrogram/2018_Jan/2f372727f4f9d500bdd7b5f0e4653f96.png)
Input File: 04-alex_from_hell-fire_ants-d77ff4fd.mp3
Channels : 2
Sample Rate : 44100
Precision : 16-bit
Duration : 00:04:19.63 = 11449771 samples = 19472.4 CDDA sectors
File Size : 10.4M
Bit Rate : 320k
Sample Encoding: MPEG audio (layer I, II or III)
Comments :
Title=Fire Ants
Artist=Alex from Hell
Album=Moths / Pimples of God
Tracknumber=4/7
Year=2014
Genre=9



Register


Вернуться к началу страницы
  Insert nick Quick quote
+Цитировать сообщение

ОтветитьСоздать новую тему
1 User(s) are reading this topic (1 Guests and 0 Anonymous Users)
0 Members:

 



- Lo-Fi Version Support form
Copyrights and abuse reports form
Time is now: 24th February 2018 - 07:07:02