Welcome Guest ( Log In | Register )

 
Reply to this topicStart new topic
> Alex From Hell - Farm [ep] (2016), Heavy/Thrash Metal
post Jan 12 2018, 15:17:22
Post #1

Serial Uploader
Group Icon
Group: V.I.P
Posts: 32,953
Releases: 31246
From: Lithuania
On Forums: 10 years 2 months
Thanks: 357711 time(s)
Lithuania


(IMG:https://metalarea.org/images/audiocovers/2018_Jan/acov_tid300440_thumb.jpg)

*Artist: Alex From Hell
*Album: Farm [ep]
*Year: 2016
*Genre: Heavy/Thrash Metal
*Country: United States (IMG:https://metalarea.org/forum/style_images/flags/United%20States.png)
*Format: mp3@CBR320kbps
*Size: 60MB

Tracklist:
01. Alex Vs Bees 04:22
02. Hay Fever 03:39
03. The Eye Of The Potato 03:29
04. The Battle Of Lone Star 05:27
05. Haiku 03:22
06. Children Of The Johnson Grass 05:16
07. The Rules 02:27
******************************
Total playing time: 28:02

Extended info
Scene-rip


Technical info
(IMG:https://metalarea.org/images/spectrogram/2018_Jan/8c84aa10de9b398f90489dc1d7e7d476.png)
Input File: 02-alex_from_hell-hay_fever-b3587e38.mp3
Channels : 2
Sample Rate : 44100
Precision : 16-bit
Duration : 00:03:39.03 = 9659399 samples = 16427.5 CDDA sectors
File Size : 8.76M
Bit Rate : 320k
Sample Encoding: MPEG audio (layer I, II or III)
Comments :
Title=Hay Fever
Artist=Alex from Hell
Album=Farm
Tracknumber=2/7
Year=2016
Genre=9



Register


Go to the top of the page
  Insert nick Quick quote
+Quote Post

Reply to this topicStart new topic
1 User(s) are reading this topic (1 Guests and 0 Anonymous Users)
0 Members:

 



- Lo-Fi Version Support form
Copyrights and abuse reports form
Time is now: 22nd August 2018 - 02:23:45