Welcome Guest ( Log In | Register )

 
Reply to this topicStart new topic
> Roman Khrustalev - Fallen Kingdom (2018), Instrumental Progressive/Power Metal (D10)
post Jan 12 2018, 15:34:51
Post #1

Три Литра
***
Group: Завсегдатай
Posts: 226
Releases: 17
From: Казахстан
On Forums: 12 years 6 months
Thanks: 459 time(s)
Kazakhstan


(IMG:http://metalarea.org/images/audiocovers/2018_Jan/acov_tid300441_thumb.jpg)

*Artist: Roman Khrustalev
*Album: Fallen Kingdom
*Year: 2018
*Genre: Instrumental Progressive/Power Metal
*Country: Kazakhstan (IMG:http://metalarea.org/forum/style_images/flags/Kazakhstan.png)
*Format: mp3@CBR320kbps
*Size: 168MB

Tracklist:
1. Misteries Of Death 05:19
2. My Little Scorpion 05:42
3. The Mistress Of The Copper Mountain 08:51
4. Mortido 06:02
5. Royal Blood 06:19
6. The Dreamweaver 09:27
7. Empty Castle 05:21
8. All Dogs Go To Heaven 02:41
9. Fallen Kingdom I 07:07
10. Fallen Kingdom II 05:30
11. Take The Gun Into Your Nightmare (bonus) 1:53
12. The Fall Of Nakkiel (bonus) 04:41
******************************
Total playing time: 1:08:53

Preview 1
Preview 2

Technical info
(IMG:http://metalarea.org/images/spectrogram/2018_Jan/8d7954f48b27812a1b3110c939e4836f.png)
Input File: 1. Mysteries Of Death.mp3
Channels : 2
Sample Rate : 44100
Precision : 16-bit
Duration : 00:05:18.10 = 14028166 samples = 23857.4 CDDA sectors
File Size : 12.9M
Bit Rate : 324k
Sample Encoding: MPEG audio (layer I, II or III)
Comments :
Title=Mysteries Of Death
Artist=Roman Khrustalev
Album=Fallen Kingdom
Tracknumber=1
Year=2018
Genre=47



Register


Go to the top of the page
  Insert nick Quick quote
+Quote Post

Reply to this topicStart new topic
1 User(s) are reading this topic (1 Guests and 0 Anonymous Users)
0 Members:

 



- Lo-Fi Version Support form
Copyrights and abuse reports form
Time is now: 21st November 2018 - 20:51:50