Welcome Guest ( Log In | Register )

> Arcnaut - A Reminder Of What Will Be [ep] (2018), Melodic Doom/Gothic Metal
post Jan 12 2018, 15:45:48
Post #1

Правь статус, ####!111
**************
Group: Металариец
Posts: 12,966
Releases: 9227
From: Г.Харьков
On Forums: 6 years 1 week
Thanks: 149993 time(s)
Unknown


(IMG:http://metalarea.org/images/audiocovers/2018_Jan/acov_tid300442_thumb.jpg)

*Artist: Arcnaut
*Album: A Reminder Of What Will Be [ep]
*Year: 2018
*Genre: Melodic Doom/Gothic Metal
*Country: Canada (IMG:http://metalarea.org/forum/style_images/flags/Canada.png)
*Format: mp3@CBR320kbps
*Size: 57MB

Tracklist:
1. We Will All Die 04:29
2. To Exist Without 05:47
3. In Silence 06:07
4. Follow 08:26
******************************
Total playing time: 24:49




Extended info
Ryan Macdonald
Sean Lang
Chris Holtz
Russ O'Shea


Technical info
(IMG:http://metalarea.org/images/spectrogram/2018_Jan/4b3b345866770b14d0719678697ba39c.png)
Input File: ARCNAUT - A Reminder Of What Will Be - 02 To Exist Without.mp3
Channels : 2
Sample Rate : 44100
Precision : 16-bit
Duration : 00:05:47.54 = 15326470 samples = 26065.4 CDDA sectors
File Size : 14.0M
Bit Rate : 322k
Sample Encoding: MPEG audio (layer I, II or III)
Comments :
Title=To Exist Without
Artist=ARCNAUT
Album=A Reminder Of What Will Be
Tracknumber=2
Year=2018



Register


Вернуться к началу страницы
  Insert nick Quick quote
+Цитировать сообщение
 
Создать новую тему
Replies (1 - 3)
post Jan 12 2018, 22:31:48
Post #2

Шесть Литров
******
Group: Металариец
Posts: 551
Releases: 0
On Forums: 9 years 5 days
Thanks: 187 time(s)
Belarus


Просто уродство.


Thanks:
(1) krotovich,
Вернуться к началу страницы
  Insert nick Quick quote
+Цитировать сообщение
post Jan 13 2018, 13:30:30
Post #3

Мегаманьяк
***********
Group: Металариец
Posts: 1,938
Releases: 1
From: Yaroslavl
On Forums: 1 year 8 months
Thanks: 970 time(s)
Northern Mariana Islands


QUOTE(DeathCoveR @ Jan 13 2018, 02:31:48) *
Просто уродство.

Какая самокритичность (IMG:style_emoticons/default/1488.gif)
Вернуться к началу страницы
  Insert nick Quick quote
+Цитировать сообщение
post Jan 14 2018, 18:47:07
Post #4

Четыре Литра
****
Group: Металариец
Posts: 329
Releases: 0
From: South Of Heaven
On Forums: 10 years 9 months
Thanks: 91 time(s)
Ukraine


ЦИТАТА(DeathCoveR @ 12th January 2018 - 23:31:48) *
Просто уродство

- В обозначении стиля ? (IMG:style_emoticons/default/smile1.gif)
Вернуться к началу страницы
  Insert nick Quick quote
+Цитировать сообщение

ОтветитьСоздать новую тему
2 User(s) are reading this topic (2 Guests and 0 Anonymous Users)
0 Members:

 



- Lo-Fi Version Support form
Copyrights and abuse reports form
Time is now: 22nd May 2018 - 03:03:33