Welcome Guest ( Log In | Register )

> Tattoo - Blood Red (1988), Heavy Metal
post Jan 12 2018, 16:29:10
Post #1

Serial Uploader
Group Icon
Group: V.I.P
Posts: 32,486
Releases: 30777
From: Lithuania
On Forums: 9 years 11 months
Thanks: 353473 time(s)
Lithuania


(IMG:http://metalarea.org/images/audiocovers/2018_Jan/acov_tid300443_thumb.jpg)

*Artist: Tattoo
*Album: Blood Red
*Year: 1988
*Genre: Heavy Metal
*Country: United States (IMG:http://metalarea.org/forum/style_images/flags/United%20States.png)
*Format: mp3@CBR320kbps
*Size: 92MB

Tracklist:
01. Top Of The Rock 03:38
02. Red Light 03:33
03. Gear Head 04:14
04. Nobody Gets Out Alive 03:22
05. Blood Red 02:56
06. Rampage 03:40
07. Ball Breaker 03:27
08. Stand On The Mountain 03:51
09. She's A Rocker 04:53
10. Follow Your Heart 04:05
******************************
Total playing time: 37:39

(IMG:http://metalarea.org/images/myspace.png)
(IMG:http://metalarea.org/images/youtube.png)

Extended info
CD-rip with scans


Technical info
(IMG:http://metalarea.org/images/spectrogram/2018_Jan/c408435041fe6162f94fe9968f22f896.png)
Input File: 02. Red Light.mp3
Channels : 2
Sample Rate : 44100
Precision : 16-bit
Duration : 00:03:33.29 = 9405913 samples = 15996.5 CDDA sectors
File Size : 8.53M
Bit Rate : 320k
Sample Encoding: MPEG audio (layer I, II or III)
Comments :
Title=Red Light
Artist=Tattoo
Album=Blood Red
Tracknumber=2/10
Year=1988
Genre=Heavy Metal



Register


Вернуться к началу страницы
  Insert nick Quick quote
+Цитировать сообщение
 
Создать новую тему
Replies (1 - 1)
post Jan 13 2018, 17:42:01
Post #2

South Of Heaven /адепт ВУДУ
**************
Group: Металариец
Posts: 12,278
Releases: 7
From: Санкт-Петербург
On Forums: 8 years 1 month
Thanks: 4351 time(s)
Russian Federation


Хороший альбом, является переизданием дебютного от 1985 года + одна песня, а вот второй от 1993 года уже так себе, ну собственно, группа после него и распалась.
Вернуться к началу страницы
  Insert nick Quick quote
+Цитировать сообщение

ОтветитьСоздать новую тему
2 User(s) are reading this topic (2 Guests and 0 Anonymous Users)
0 Members:

 



- Lo-Fi Version Support form
Copyrights and abuse reports form
Time is now: 24th May 2018 - 14:47:12