Welcome Guest ( Log In | Register )

> Stormbane - Eldritch Devotion (2018), Black/Thrash Metal
post Jan 12 2018, 16:49:30
Post #1

Правь статус, ####!111
**************
Group: Металариец
Posts: 12,966
Releases: 9227
From: Г.Харьков
On Forums: 6 years 1 week
Thanks: 149992 time(s)
Unknown


(IMG:http://metalarea.org/images/audiocovers/2018_Jan/acov_tid300446_thumb.jpg)

*Artist: Stormbane
*Album: Eldritch Devotion
*Year: 2018
*Genre: Black/Thrash Metal
*Country: Australia (IMG:http://metalarea.org/forum/style_images/flags/Australia.png)
*Format: mp3@CBR320kbps
*Size: 78MB

Tracklist:
1. The Cold Flame 04:26
2. Deathless 03:44
3. Iconoclasm Reigns 03:45
4. Spectral Dissent 03:55
5. Cathartic Tomb 03:36
6. Sleep of the Nephilim (Ondine Dreams) 04:44
7. Lethe; Waters of Misery 04:43
8. Eschaton 05:07
******************************
Total playing time: 34:00




Extended info
We recorded this in 2014, a bit of a delayed release due to explosive bowel movements and disagreements. ENJOY CUNTS!
credits
released January 1, 2018

Stormreaper - Vox & Axesturbation
Cuntsman - Battery Sodomy
Jeff - was there on bass?
Vermin - Lead Guitars and Pussy Flagellant


Technical info
(IMG:http://metalarea.org/images/spectrogram/2018_Jan/a83dbcbe5003668755ad85e7e9801e22.png)
Input File: 02. Deathless.mp3
Channels : 2
Sample Rate : 44100
Precision : 16-bit
Duration : 00:03:44.57 = 9903625 samples = 16842.9 CDDA sectors
File Size : 8.99M
Bit Rate : 320k
Sample Encoding: MPEG audio (layer I, II or III)
Comments :
Title=Deathless
Artist=Stormbane
Album=Eldritch Devotion
Tracknumber=2
Year=2018



Register


Вернуться к началу страницы
  Insert nick Quick quote
+Цитировать сообщение
 
Создать новую тему
Replies (1 - 7)
post Jan 12 2018, 19:08:46
Post #2

Правь статус, ####!111
**************
Group: Металариец
Posts: 12,966
Releases: 9227
From: Г.Харьков
On Forums: 6 years 1 week
Thanks: 149992 time(s)
Unknown


Register


Вернуться к началу страницы
  Insert nick Quick quote
+Цитировать сообщение
post Jan 12 2018, 21:09:53
Post #3

Group: Подсевший
Posts: 21
Releases: 0
On Forums: 7 years 9 months
Thanks: 3 time(s)
Ukraine


ну Австралия это да вообще, а зачем вокал -3дб и вообще соло, какашлак зачем... ну работайте. думаю дальше будет лучше
Вернуться к началу страницы
  Insert nick Quick quote
+Цитировать сообщение
post Jan 12 2018, 23:46:06
Post #4

Правь статус, ####!111
**************
Group: Металариец
Posts: 12,966
Releases: 9227
From: Г.Харьков
On Forums: 6 years 1 week
Thanks: 149992 time(s)
Unknown


ЦИТАТА(Asketto @ 12th January 2018 - 22:09:53) *
ну работайте. думаю дальше будет лучше

группа уже давно развалилась (IMG:style_emoticons/default/15.gif)
Вернуться к началу страницы
  Insert nick Quick quote
+Цитировать сообщение
post Jan 13 2018, 08:35:17
Post #5

Group: Подсевший
Posts: 38
Releases: 0
From: Kharkov
On Forums: 11 months 3 weeks
Thanks: 3 time(s)
Ukraine


хорошо бы восстановить старые ссылки одну дёмку и два миника!бо старые не фурычат!
Вернуться к началу страницы
  Insert nick Quick quote
+Цитировать сообщение
post Jan 13 2018, 12:56:52
Post #6

Group: Подсевший
Posts: 21
Releases: 0
On Forums: 7 years 9 months
Thanks: 3 time(s)
Ukraine


Вчера был невменяем.
Сегодня переслушал.
Группа зачетная.
Саунд - высший бал.
Вернуться к началу страницы
  Insert nick Quick quote
+Цитировать сообщение
post Jan 15 2018, 18:19:14
Post #7

кручу наждак
**************
Group: Металариец
Posts: 3,240
Releases: 86
From: Самара
On Forums: 8 years 1 week
Thanks: 2412 time(s)
Russian Federation


Black/Thrash Metal?
Тут трэша процентов 80
Вернуться к началу страницы
  Insert nick Quick quote
+Цитировать сообщение
post Feb 10 2018, 14:50:34
Post #8

Crush! Kill! Destroy!
**************
Group: Металариец
Posts: 4,444
Releases: 15
From: Kaliningrad
On Forums: 10 years 6 months
Thanks: 4135 time(s)
Russian Federation


У меня это уже будет однозначно один из лучших релизов 2018 года. Жаль лавочка закрылась.
Вернуться к началу страницы
  Insert nick Quick quote
+Цитировать сообщение

ОтветитьСоздать новую тему
2 User(s) are reading this topic (2 Guests and 0 Anonymous Users)
0 Members:

 



- Lo-Fi Version Support form
Copyrights and abuse reports form
Time is now: 22nd May 2018 - 02:51:07