Welcome Guest ( Log In | Register )

> Bergsvriden - Hellsemyr (2018), Folk/Black Metal
post Jan 12 2018, 17:21:00
Post #1

...
**************
Group: Металариец
Posts: 3,213
Releases: 1350
From: МЕЩЁРА
On Forums: 10 years 1 month
Thanks: 38741 time(s)
Russian Federation


(IMG:http://metalarea.org/images/audiocovers/2018_Jan/acov_tid300447_thumb.jpg)

*Artist: Bergsvriden
*Album: Hellsemyr
*Year: 2018
*Genre: Folk/Black Metal
*Country: Sweden (IMG:http://metalarea.org/forum/style_images/flags/Sweden.png)
*Format: mp3@CBR320kbps
*Size: 114MB

Tracklist:
01. I Mossens Begynnelse 02:18
02. Bundsbesatt 05:14
03. Bergabodd 06:50
04. Långmod 03:04
05. Träskbesudlat Mjöd 03:30
06. Offerrit 05:35
07. Fjällaro 02:28
08. De Groteska 3 04:36
09. Skri 05:03
10. Skenet Kan Bedra 02:08
11. Forndom 01:27
12. Mimers Brunn 05:43
******************************
Total playing time: 47:56






Extended info


Technical info
(IMG:http://metalarea.org/images/spectrogram/2018_Jan/f3e08c05983bf7d1cf953afbd1f9f7a9.png)
Input File: 02. Bundsbesatt.mp3
Channels : 2
Sample Rate : 44100
Precision : 16-bit
Duration : 00:05:14.78 = 13881710 samples = 23608.4 CDDA sectors
File Size : 12.8M
Bit Rate : 326k
Sample Encoding: MPEG audio (layer I, II or III)
Comments :
Title=Bundsbesatt
Artist=Bergsvriden
Album=Hellsemyr
Tracknumber=2
Year=2018



Register


Вернуться к началу страницы
  Insert nick Quick quote
+Цитировать сообщение
 
Создать новую тему
Replies (1 - 1)
post Jan 19 2018, 09:01:18
Post #2

Девять Литров
*********
Group: Металариец
Posts: 955
Releases: 37
From: великий город Питер
On Forums: 12 years 5 months
Thanks: 1772 time(s)
Russian Federation


март 2017 года - https://www.metal-archives.com/albums/Bergs...ellsemyr/692417
Вернуться к началу страницы
  Insert nick Quick quote
+Цитировать сообщение

ОтветитьСоздать новую тему
2 User(s) are reading this topic (2 Guests and 0 Anonymous Users)
0 Members:

 



- Lo-Fi Version Support form
Copyrights and abuse reports form
Time is now: 20th May 2018 - 14:54:21