Welcome Guest ( Log In | Register )

> Explosive - Impacto Violento (2017), Old School Thrash Metal
post Jan 12 2018, 19:57:55
Post #1

Правь статус, ####!111
**************
Group: Металариец
Posts: 13,903
Releases: 9711
From: Г.Харьков
On Forums: 6 years 3 months
Thanks: 159207 time(s)
Unknown


(IMG:http://metalarea.org/images/audiocovers/2018_Jan/acov_tid300449_thumb.jpg)

*Artist: Explosive
*Album: Impacto Violento
*Year: 2017
*Genre: Old School Thrash Metal
*Country: Bolivia (IMG:http://metalarea.org/forum/style_images/flags/Bolivia.png)
*Format: mp3@VBR209kbps
*Size: 66MB

Tracklist:
1. Ácido Nuclear 04:24
2. Arrasando Todo Límite 03:15
3. Agoniza 02:40
4. Thrash Metal 03:54
5. Esquizofrenia 03:51
6. Fuerza Thrasher 03:52
7. Impacto Violento 03:28
8. Curva Del Diablo 04:31
9. Agresor Criminal 04:07
10. Vencer o Morir 03:17
11. Enemy of God (Bonus Track) 05:53
******************************
Total playing time: 43:12



Extended info
Jhoan Toledo (vocal - guitarra)
Orlando Toledo (guitarra)
Rembert Condori (bateria)
Juan Jose Ibañez (bajo - coros)



Technical info
(IMG:http://metalarea.org/images/spectrogram/2018_Jan/d2c2a5155696577d7f47b9fd9953b7fe.png)
Input File: 04 - Thrash Metal.mp3
Channels : 2
Sample Rate : 44100
Precision : 16-bit
Duration : 00:03:53.64 = 10303524 samples = 17523 CDDA sectors
File Size : 6.03M
Bit Rate : 207k
Sample Encoding: MPEG audio (layer I, II or III)
Comments :
Title=Thrash Metal
Artist=Explosive
Album=Impacto Violento
Tracknumber=4/11
Year=2017
Genre=Thrash Metal



Register


Go to the top of the page
  Insert nick Quick quote
+Quote Post
 
Start new topic
Replies (1 - 1)
post Jan 13 2018, 17:52:38
Post #2

MDM-Thrash Metal
**************
Group: Металариец
Posts: 6,951
Releases: 412
From: Одесса
On Forums: 11 years 4 days
Thanks: 13221 time(s)
Ukraine


Register


Thanks:
Go to the top of the page
  Insert nick Quick quote
+Quote Post

Reply to this topicStart new topic
1 User(s) are reading this topic (1 Guests and 0 Anonymous Users)
0 Members:

 



- Lo-Fi Version Support form
Copyrights and abuse reports form
Time is now: 15th August 2018 - 08:04:34