Welcome Guest ( Log In | Register )

 
ОтветитьСоздать новую тему
> Electro Violence - Ignominia [ep] (2017), Old School Thrash Metal
post Jan 12 2018, 20:59:38
Post #1

Правь статус, ####!111
**************
Group: Металариец
Posts: 13,016
Releases: 9249
From: Г.Харьков
On Forums: 6 years 1 week
Thanks: 150340 time(s)
Unknown


(IMG:http://metalarea.org/images/audiocovers/2018_Jan/acov_tid300450_thumb.jpg)

*Artist: Electro Violence
*Album: Ignominia [ep]
*Year: 2017
*Genre: Old School Thrash Metal
*Country: Bolivia (IMG:http://metalarea.org/forum/style_images/flags/Bolivia.png)
*Format: mp3@VBR202kbps
*Size: 24MB

Tracklist:
1. Intro 01:03 instrumental
2. Ignominia 03:01 instrumental
3. Miseria 04:13
4. Suffering 03:38
5. Violenta Ley 04:23
******************************
Total playing time: 16:18


(IMG:http://metalarea.org/images/youtube.png)

Extended info
Rudy - Bateria Voz
Jesus - Bajo
Richy - Guitarra voz




Technical info
(IMG:http://metalarea.org/images/spectrogram/2018_Jan/b3886fba529b3900dbf1833006219a96.png)
Input File: 03-Miseria.mp3
Channels : 2
Sample Rate : 44100
Precision : 16-bit
Duration : 00:04:13.08 = 11160828 samples = 18981 CDDA sectors
File Size : 6.34M
Bit Rate : 200k
Sample Encoding: MPEG audio (layer I, II or III)
Comments :
Title=Miseria
Artist=Electro Violence
Album=Ignominia
Tracknumber=3/5
Year=2017
Genre=Thrash Metal



Register


Вернуться к началу страницы
  Insert nick Quick quote
+Цитировать сообщение

ОтветитьСоздать новую тему
1 User(s) are reading this topic (1 Guests and 0 Anonymous Users)
0 Members:

 



- Lo-Fi Version Support form
Copyrights and abuse reports form
Time is now: 24th May 2018 - 14:29:22