Welcome Guest ( Log In | Register )

 
Reply to this topicStart new topic
> Morbus - Sentenciado Al Dolor (2015), Death/Thrash Metal
post Jan 12 2018, 22:48:25
Post #1

Правь статус, ####!111
**************
Group: Металариец
Posts: 13,936
Releases: 9727
From: Г.Харьков
On Forums: 6 years 3 months
Thanks: 159564 time(s)
Unknown


(IMG:http://metalarea.org/images/audiocovers/2018_Jan/acov_tid300451_thumb.jpg)

*Artist: Morbus
*Album: Sentenciado Al Dolor
*Year: 2015
*Genre: Death/Thrash Metal
*Country: Bolivia (IMG:http://metalarea.org/forum/style_images/flags/Bolivia.png)
*Format: mp3@VBR198kbps
*Size: 43MB

Tracklist:
1. Intro 01:34
2. Nada te Podrá Salvar 03:04
3. Día Obscuro 03:59
4. Camino a la Odisea 06:55
5. Tormenta 05:39
6. A la Destrucción 03:28
7. Sentenciado al Dolor 02:54
8. Hombre Que Naces 02:51
******************************
Total playing time: 30:24



Extended info
Freddy Navarro (GUITARRA)
Edson Benitez (GUITARRA)
Gabriel Ramos (VOZ Y BAJO)
Armando Gonzales (BATERÍA)



Technical info
(IMG:http://metalarea.org/images/spectrogram/2018_Jan/57e27a009669d9d5e09dca2a934118f0.png)
Input File: 4.- Camino A La Odisea.mp3
Channels : 2
Sample Rate : 44100
Precision : 16-bit
Duration : 00:06:54.40 = 18275040 samples = 31080 CDDA sectors
File Size : 10.4M
Bit Rate : 201k
Sample Encoding: MPEG audio (layer I, II or III)
Comments :
Title=Camino A La Odisea
Artist=Morbus
Album=Sentenciado al Dolor
Tracknumber=4
Year=2015
Genre=Death Metal



Register


Go to the top of the page
  Insert nick Quick quote
+Quote Post

Reply to this topicStart new topic
1 User(s) are reading this topic (1 Guests and 0 Anonymous Users)
0 Members:

 



- Lo-Fi Version Support form
Copyrights and abuse reports form
Time is now: 18th August 2018 - 11:44:09