Welcome Guest ( Log In | Register )

> Kalkutun - Antiguos Encuentros Espirituales (2017), Black Metal
post Jan 13 2018, 07:53:14
Post #1

Аннигилятор пивА
Group Icon
Group: V.I.P
Posts: 46,692
Releases: 14016
From: Koenigsberg - TILZIT
On Forums: 11 years 11 months
Thanks: 310862 time(s)
Russian Federation


(IMG:https://metalarea.org/images/audiocovers/2018_Jan/acov_tid300453_thumb.jpg)

*Artist: Kalkutun
*Album: Antiguos Encuentros Espirituales
*Year: 2017
*Genre: Black Metal
*Country: Chile (IMG:https://metalarea.org/forum/style_images/flags/Chile.png)
*Format: mp3@CBR320kbps
*Size: 86MB

Tracklist:
1. Forjado En Las Sombras
2. Antiguos Encuentros Espirituales
3. Altar De Los Primigenios
4. Kalkutun Habla
5. Hijos Del Musgo
6. Brujos De Escarcha
7. Los Arcanos De Aculeo
8. El Sol Ha Caído
******************************
Total playing time: 37:08



Extended info
Fernando Donaire/vocalista (Lord Kalkutun)
Matías Jara/guitarra (AK Espantapájaros)
Joel Marzal/guitarra (Nokktur)
Pablo Carmona/bajo (Anchimayen)
Paolo/bateria (Apocalyptico thunder sticks)



Technical info
(IMG:https://metalarea.org/images/spectrogram/2018_Jan/b86209f81fb455e72215e86f65edb111.png)
Input File: 02. Antiguos Encuentros Espirituales.mp3
Channels : 2
Sample Rate : 48000
Precision : 16-bit
Duration : 00:03:42.12 = 10661760 samples ~ 16659 CDDA sectors
File Size : 8.89M
Bit Rate : 320k
Sample Encoding: MPEG audio (layer I, II or III)
Comments :
Title=Antiguos encuentros espirituales
Artist=kalkutun
Album=Antiguos Encuentros Espirituales
Tracknumber=2
Year=2017
Genre=Black Metal



Register


Вернуться к началу страницы
  Insert nick Quick quote
+Цитировать сообщение
 
Создать новую тему
Replies (1 - 1)
post Jan 13 2018, 09:12:48
Post #2

Аннигилятор пивА
Group Icon
Group: V.I.P
Posts: 46,692
Releases: 14016
From: Koenigsberg - TILZIT
On Forums: 11 years 11 months
Thanks: 310862 time(s)
Russian Federation


MIRROR
Register


Вернуться к началу страницы
  Insert nick Quick quote
+Цитировать сообщение

ОтветитьСоздать новую тему
1 User(s) are reading this topic (1 Guests and 0 Anonymous Users)
0 Members:

 



- Lo-Fi Version Support form
Copyrights and abuse reports form
Time is now: 22nd May 2018 - 18:47:49