Welcome Guest ( Log In | Register )

> Kalkutun - Antiguos Encuentros Espirituales (2017), Black Metal
post Jan 13 2018, 07:53:14
Post #1

Аннигилятор пивА
Group Icon
Group: V.I.P
Posts: 50,461
Releases: 15669
From: Koenigsberg - TILZIT
On Forums: 12 years 5 months
Thanks: 340500 time(s)
Russian Federation


(IMG:https://metalarea.org/images/audiocovers/2018_Jan/acov_tid300453_thumb.jpg)

*Artist: Kalkutun
*Album: Antiguos Encuentros Espirituales
*Year: 2017
*Genre: Black Metal
*Country: Chile (IMG:https://metalarea.org/forum/style_images/flags/Chile.png)
*Format: mp3@CBR320kbps
*Size: 86MB

Tracklist:
1. Forjado En Las Sombras
2. Antiguos Encuentros Espirituales
3. Altar De Los Primigenios
4. Kalkutun Habla
5. Hijos Del Musgo
6. Brujos De Escarcha
7. Los Arcanos De Aculeo
8. El Sol Ha Caído
******************************
Total playing time: 37:08



Extended info
Fernando Donaire/vocalista (Lord Kalkutun)
Matías Jara/guitarra (AK Espantapájaros)
Joel Marzal/guitarra (Nokktur)
Pablo Carmona/bajo (Anchimayen)
Paolo/bateria (Apocalyptico thunder sticks)



Technical info
(IMG:https://metalarea.org/images/spectrogram/2018_Jan/b86209f81fb455e72215e86f65edb111.png)
Input File: 02. Antiguos Encuentros Espirituales.mp3
Channels : 2
Sample Rate : 48000
Precision : 16-bit
Duration : 00:03:42.12 = 10661760 samples ~ 16659 CDDA sectors
File Size : 8.89M
Bit Rate : 320k
Sample Encoding: MPEG audio (layer I, II or III)
Comments :
Title=Antiguos encuentros espirituales
Artist=kalkutun
Album=Antiguos Encuentros Espirituales
Tracknumber=2
Year=2017
Genre=Black Metal



Register


Go to the top of the page
  Insert nick Quick quote
+Quote Post
 
Start new topic
Replies (1 - 1)
post Jan 13 2018, 09:12:48
Post #2

Аннигилятор пивА
Group Icon
Group: V.I.P
Posts: 50,461
Releases: 15669
From: Koenigsberg - TILZIT
On Forums: 12 years 5 months
Thanks: 340500 time(s)
Russian Federation


MIRROR
Register


Go to the top of the page
  Insert nick Quick quote
+Quote Post

Reply to this topicStart new topic
1 User(s) are reading this topic (1 Guests and 0 Anonymous Users)
0 Members:

 



- Lo-Fi Version Support form
Copyrights and abuse reports form
Time is now: 21st November 2018 - 13:13:26