Welcome Guest ( Log In | Register )

> CastleWay - The Hunt (2018), Folk/Viking Metal
post Jan 13 2018, 08:01:05
Post #1

Serial Uploader
Group Icon
Group: V.I.P
Posts: 32,939
Releases: 31231
From: Lithuania
On Forums: 10 years 2 months
Thanks: 357623 time(s)
Lithuania


(IMG:http://metalarea.org/images/audiocovers/2018_Jan/acov_tid300454_thumb.jpg)

*Artist: CastleWay
*Album: The Hunt
*Year: 2018
*Genre: Folk/Viking Metal
*Country: Switzerland (IMG:http://metalarea.org/forum/style_images/flags/Switzerland.png)
*Format: mp3@CBR320kbps
*Size: 99MB

Tracklist:
01. Jormungang
02. Chicken Run A True Viking Story
03. The Hunt
04. Goblin Goblin Goblin
05. A Shivering Sea
06. On the Way Back
07. Burn
08. Of Wind Snow and Ice
******************************
Total playing time: 43:14



Technical info
(IMG:http://metalarea.org/images/spectrogram/2018_Jan/6cd54c73dd1cbb8f77619aa1bdfae65a.png)
Input File: 02-Chicken Run A True Viking Story.mp3
Channels : 2
Sample Rate : 44100
Precision : 16-bit
Duration : 00:05:52.58 = 15548954 samples = 26443.8 CDDA sectors
File Size : 14.1M
Bit Rate : 320k
Sample Encoding: MPEG audio (layer I, II or III)
Comments :
Title=Chicken Run A True Viking Story
Artist=CastleWay
Album=The Hunt
Tracknumber=2/8
Year=2018



Register


Go to the top of the page
  Insert nick Quick quote
+Quote Post
 
Start new topic
Replies (1 - 6)
post Jan 13 2018, 11:31:21
Post #2

Аннигилятор пивА
Group Icon
Group: V.I.P
Posts: 48,076
Releases: 14582
From: Koenigsberg - TILZIT
On Forums: 12 years 2 months
Thanks: 321087 time(s)
Russian Federation


98MB/320
Register


Go to the top of the page
  Insert nick Quick quote
+Quote Post
post Jan 13 2018, 11:39:28
Post #3

hearer & reader
**************
Group: Металариец
Posts: 6,669
Releases: 84
From: Moscow
On Forums: 10 years 11 months
Thanks: 6540 time(s)
Russian Federation




Go to the top of the page
  Insert nick Quick quote
+Quote Post
post Jan 16 2018, 10:10:51
Post #4

Group: Подсевший
Posts: 14
Releases: 0
From: Питер
On Forums: 11 years 7 months
Thanks: 4 time(s)
Russian Federation


А первый альбом Tales from the Old Times 2013 года есть у кого-нибудь?
Go to the top of the page
  Insert nick Quick quote
+Quote Post
post Jan 28 2018, 19:32:45
Post #5

No More Tears
**************
Group: Металариец
Posts: 4,933
Releases: 115
From: Тбилиси, Грузия
On Forums: 12 years 3 weeks
Thanks: 2341 time(s)
Georgia


krieg88,
ЦИТАТА(krieg88 @ 16th January 2018 - 13:10:51) *
А первый альбом Tales from the Old Times 2013 года есть у кого-нибудь?

Нету пока нигде. Они его сами кустарно "выпустили". Посмотрим, может и достану в ближайщем будущем. Только обещать не могу.
Go to the top of the page
  Insert nick Quick quote
+Quote Post
post Jan 30 2018, 05:13:09
Post #6

Враг Газпрома
**************
Group: Металариец
Posts: 5,386
Releases: 0
On Forums: 9 years 2 months
Thanks: 1800 time(s)
Russian Federation


ЦИТАТА(krieg88 @ Jan 16 2018, 12:10:51) *
А первый альбом Tales from the Old Times 2013 года есть у кого-нибудь?

ЦИТАТА(kakha_k @ Jan 28 2018, 21:32:45) *
krieg88,

Нету пока нигде. Они его сами кустарно "выпустили". Посмотрим, может и достану в ближайщем будущем. Только обещать не могу.

Castleway - Tales From The Old Times (2013)
Go to the top of the page
  Insert nick Quick quote
+Quote Post
post Jan 30 2018, 08:47:10
Post #7

Аполітичний
**************
Group: Металариец
Posts: 5,137
Releases: 143
From: Тимчасово окупована територія - Юзівка
On Forums: 9 years 11 months
Thanks: 5346 time(s)
Ukraine


Альбом - бімба! (IMG:style_emoticons/default/dwarf-1.gif)
Go to the top of the page
  Insert nick Quick quote
+Quote Post

Reply to this topicStart new topic
1 User(s) are reading this topic (1 Guests and 0 Anonymous Users)
0 Members:

 



- Lo-Fi Version Support form
Copyrights and abuse reports form
Time is now: 19th August 2018 - 02:25:51