Welcome Guest ( Log In | Register )

> Kill Merrin - Salem Trials (2018), Progressive Death Metal
post Jan 13 2018, 08:28:33
Post #1

Аннигилятор пивА
Group Icon
Group: V.I.P
Posts: 50,462
Releases: 15669
From: Koenigsberg - TILZIT
On Forums: 12 years 5 months
Thanks: 340500 time(s)
Russian Federation


(IMG:https://metalarea.org/images/audiocovers/2018_Jan/acov_tid300455_thumb.jpg)

*Artist: Kill Merrin
*Album: Salem Trials
*Year: 2018
*Genre: Progressive Death Metal
*Country: Mexico (IMG:https://metalarea.org/forum/style_images/flags/Mexico.png)
*Format: mp3@CBR320kbps
*Size: 76MB

Tracklist:
01. Mortem
02. Salem Trials
03. Inhumain
04. Ocean Corpse
05. The Hang Man
06. Witch Hunter
******************************
Total playing time: 31:56

Extended info


Technical info
(IMG:https://metalarea.org/images/spectrogram/2018_Jan/a45a304862716774df0a19cd5d2efeda.png)
Input File: 03. Inhumain.mp3
Channels : 2
Sample Rate : 44100
Precision : 16-bit
Duration : 00:04:16.08 = 11293084 samples = 19205.9 CDDA sectors
File Size : 10.7M
Bit Rate : 333k
Sample Encoding: MPEG audio (layer I, II or III)
Comments :
Title=Inhumain
Artist=Kill Merrin
Album=Salem Trials
Tracknumber=3/6
Year=2018
Discnumber=1



Register


Go to the top of the page
  Insert nick Quick quote
+Quote Post
 
Start new topic
Replies (1 - 1)
post Jan 13 2018, 09:12:11
Post #2

Аннигилятор пивА
Group Icon
Group: V.I.P
Posts: 50,462
Releases: 15669
From: Koenigsberg - TILZIT
On Forums: 12 years 5 months
Thanks: 340500 time(s)
Russian Federation


MIRROR
Register


Go to the top of the page
  Insert nick Quick quote
+Quote Post

Reply to this topicStart new topic
1 User(s) are reading this topic (1 Guests and 0 Anonymous Users)
0 Members:

 



- Lo-Fi Version Support form
Copyrights and abuse reports form
Time is now: 21st November 2018 - 13:23:51