Welcome Guest ( Log In | Register )

> Releases Upload / Добавление релизов

Добавить релиз тут / Click here to add release
Рекомендованные обменники / Recommended file shares

 
ОтветитьСоздать новую тему
> Darklord & Amethyste & Atrophy & Carmina - Obscure Infinity [split] (2004), Black Metal | Death Metal | Progressive Death Metal | Death Metal
post Jan 13 2018, 08:32:31
Post #1

...
Group Icon
Group: S-moderation team
Posts: 5,354
Releases: 1129
On Forums: 6 years 11 months
Thanks: 26544 time(s)
Unknown


(IMG:http://metalarea.org/images/audiocovers/2018_Jan/acov_tid300456_thumb.JPG)

*Artist: Darklord & Amethyste & Atrophy & Carmina
*Album: Obscure Infinity [split]
*Year: 2004
*Genre: Black Metal | Death Metal | Progressive Death Metal | Death Metal
*Country: Australia (IMG:http://metalarea.org/forum/style_images/flags/Australia.png) | France (IMG:http://metalarea.org/forum/style_images/flags/France.png) | France (IMG:http://metalarea.org/forum/style_images/flags/France.png) | France (IMG:http://metalarea.org/forum/style_images/flags/France.png)
*Format: mp3@VBR250kbps
*Size: 98MB

Tracklist:
Carmina:
1. Rouge sang 02:35
2. Le sens du silence 02:18
3. Evangelion 01:18
4. Et ils connaitront la peur 03:54
Amethyste:
5. Thrown Off Balance 06:14
6. A Twilight Season 06:56
7. World of Perverstemptation 04:38
Atrophy:
8. Dysfonction 03:35
9. Septicémie 03:44
10. Mythe 05:17
11. Du Cyanure Pour L'Humanité 03:13
Darklord:
12. Into the Lightless Realm 01:14
13. Commota Est et Contremuit Terra 02:35
14. Appearance of the Spirit 00:15
15. Prince of the Land of Tears 02:44
16. I Summon Thee 01:44
17. Opening of the Seventh Gate 00:50
******************************
Total playing time: 53:04

Extended info
Scene tape rip. Nihilistic Holocaust cassette limited to 1500 copies.


Technical info
(IMG:http://metalarea.org/images/spectrogram/2018_Jan/07a646bf45a63a617e1c35e3a12893f3.png)
Input File: 17_darklord--opening_of_the_7th_gate-vic.mp3
Channels : 2
Sample Rate : 44100
Precision : 16-bit
Duration : 00:00:50.94 = 2246366 samples = 3820.35 CDDA sectors
File Size : 1.49M
Bit Rate : 233k
Sample Encoding: MPEG audio (layer I, II or III)
Comments :
Title=Opening Of The 7th Gate
Artist=Darklord
Album=Obscure Infinity
Tracknumber=17
Year=2004
Genre=22



Register


Вернуться к началу страницы
  Insert nick Quick quote
+Цитировать сообщение

ОтветитьСоздать новую тему
1 User(s) are reading this topic (1 Guests and 0 Anonymous Users)
0 Members:

 



- Lo-Fi Version Support form
Copyrights and abuse reports form
Time is now: 19th February 2018 - 15:00:30