Welcome Guest ( Log In | Register )

 
ОтветитьСоздать новую тему
> Enthrallment - The Scarlet Difference [demo] (1999), Brutal Death Metal/Grindcore
post Jan 13 2018, 08:52:13
Post #1

...
Group Icon
Group: S-moderation team
Posts: 6,167
Releases: 1275
On Forums: 7 years 2 months
Thanks: 31191 time(s)
Unknown


(IMG:http://metalarea.org/images/audiocovers/2018_Jan/acov_tid300458_thumb.jpg)

*Artist: Enthrallment
*Album: The Scarlet Difference [demo]
*Year: 1999
*Genre: Brutal Death Metal/Grindcore
*Country: Bulgaria (IMG:http://metalarea.org/forum/style_images/flags/Bulgaria.png)
*Format: mp3@CBR320kbps
*Size: 49MB

Tracklist:
1. Penance 03:31
2. Orphaned Relics 02:33
3. Chronograph of Disorder 03:35
4. Hactic 03:23
5. The Scarlet Difference 05:31
6. Stripped, Raped and Strangled (Cannibal Corpse cover) 03:15
******************************
Total playing time: 21:48

Technical info
(IMG:http://metalarea.org/images/spectrogram/2018_Jan/4a50852bee67576151a06b5ee2c4277a.png)
Input File: 01. Penance.mp3
Channels : 2
Sample Rate : 44100
Precision : 16-bit
Duration : 00:03:32.06 = 9351934 samples = 15904.6 CDDA sectors
File Size : 8.48M
Bit Rate : 320k
Sample Encoding: MPEG audio (layer I, II or III)
Comments :
Title=Penance
Artist=Enthrallment
Album=The Scarlet Difference
Tracknumber=1
Year=1999



Register


Вернуться к началу страницы
  Insert nick Quick quote
+Цитировать сообщение

ОтветитьСоздать новую тему
1 User(s) are reading this topic (1 Guests and 0 Anonymous Users)
0 Members:

 



- Lo-Fi Version Support form
Copyrights and abuse reports form
Time is now: 22nd May 2018 - 18:47:59