Welcome Guest ( Log In | Register )

> Heidentum - Atenoux [demo] (2005), Pagan Black Metal
post Jan 13 2018, 09:03:59
Post #1

...
Group Icon
Group: S-moderation team
Posts: 7,532
Releases: 1289
On Forums: 7 years 8 months
Thanks: 36381 time(s)
Croatia


(IMG:http://metalarea.org/images/audiocovers/2018_Jan/acov_tid300460_thumb.JPG)

*Artist: Heidentum
*Album: Atenoux [demo]
*Year: 2005
*Genre: Pagan Black Metal
*Country: Germany (IMG:http://metalarea.org/forum/style_images/flags/Germany.png)
*Format: mp3@VBR238kbps
*Size: 62MB

Tracklist:
1. Und schwarzer Stahl Zerfetzt das Fleisch 04:22
2. Siegesruf 04:39
3. Schützenmond 06:40
4. Urahnenzeit Wolfszeit 07:48
5. Grimetat 03:05
6. Sturmhatz 04:40
7. Pfad der Wölfe 05:25
******************************
Total playing time: 36:39

Extended info
Eclipse of Live Promulgation tape limited to 444 copies. Scene rip.


Technical info
(IMG:http://metalarea.org/images/spectrogram/2018_Jan/b7f3657f5f1fa344968736a9c3dbd37f.png)
Input File: 03-schutzemond-gw.mp3
Channels : 2
Sample Rate : 44100
Precision : 16-bit
Duration : 00:06:40.56 = 17664740 samples = 30042.1 CDDA sectors
File Size : 12.1M
Bit Rate : 242k
Sample Encoding: MPEG audio (layer I, II or III)
Comments :
Title=schГјtzemond
Artist=heidentum
Album=atenoux
Tracknumber=3/7
Year=2005-00-00
Genre=Black Metal



Register


Go to the top of the page
  Insert nick Quick quote
+Quote Post
 
Start new topic
Replies (1 - 1)
post Jul 27 2018, 07:53:33
Post #2

добрый мизантроп
***********
Group: Металариец
Posts: 1,561
Releases: 0
From: Минск
On Forums: 8 years 5 days
Thanks: 470 time(s)
Madagascar


Go to the top of the page
  Insert nick Quick quote
+Quote Post

Reply to this topicStart new topic
1 User(s) are reading this topic (1 Guests and 0 Anonymous Users)
0 Members:

 



- Lo-Fi Version Support form
Copyrights and abuse reports form
Time is now: 19th November 2018 - 18:22:18