Welcome Guest ( Log In | Register )

 
Reply to this topicStart new topic
> Mirkhall - Heathen Hearted [compilation] (2005), Pagan Metal
post Jan 13 2018, 09:31:23
Post #1

...
Group Icon
Group: S-moderation team
Posts: 7,537
Releases: 1289
On Forums: 7 years 8 months
Thanks: 36443 time(s)
Croatia


(IMG:http://metalarea.org/images/audiocovers/2018_Jan/acov_tid300461_thumb.jpg)

*Artist: Mirkhall
*Album: Heathen Hearted [compilation]
*Year: 2005
*Genre: Pagan Metal
*Country: Finland (IMG:http://metalarea.org/forum/style_images/flags/Finland.png)
*Format: mp3@VBR312kbps
*Size: 75MB

Tracklist:
1. Ring to Rule 01:40
2. Funeral Times 03:44
3. Warmoon 04:15
4. Winter of Tragedies Reign 04:46
5. Stormbreath of Fear 03:46
6. Heathen Hearted 03:06
7. Under Banners of Eternal Pagan North 05:24
8. Cursed Fullmoon Fog 06:01
******************************
Total playing time: 32:42

Extended info
Compilation of the demos "Ring to Rule" (1-3) and "Winter of Tragedies Reign" (4-8) with remastered sound. Scene rip.


Technical info
(IMG:http://metalarea.org/images/spectrogram/2018_Jan/17a9d64a63d8bf8ac04b2d356e986349.png)
Input File: 08_mirkhall-cursed_fullmoon_fog-bf.mp3
Channels : 2
Sample Rate : 44100
Precision : 16-bit
Duration : 00:06:01.69 = 15950573 samples = 27126.8 CDDA sectors
File Size : 13.9M
Bit Rate : 308k
Sample Encoding: MPEG audio (layer I, II or III)
Comments :
Title=Cursed Fullmoon Fog
Artist=Mirkhall
Album=Heathen Hearted
Tracknumber=8
Year=2005
Genre=Black Metal



Register


Go to the top of the page
  Insert nick Quick quote
+Quote Post

Reply to this topicStart new topic
1 User(s) are reading this topic (1 Guests and 0 Anonymous Users)
0 Members:

 



- Lo-Fi Version Support form
Copyrights and abuse reports form
Time is now: 21st November 2018 - 13:21:09