Welcome Guest ( Log In | Register )

 
ОтветитьСоздать новую тему
> Brujeria - ¡Demoniaco! [ep] (1990), Death Metal/Grindcore
post Jan 13 2018, 09:45:01
Post #1

Join my religion, or die
**************
Group: Металариец
Posts: 9,468
Releases: 1136
From: Питера
On Forums: 8 years 7 months
Thanks: 15423 time(s)
Russian Federation


(IMG:https://metalarea.org/images/audiocovers/2018_Jan/acov_tid300462_thumb.jpg)

*Artist: Brujeria
*Album: ¡Demoniaco! [ep]
*Year: 1990
*Genre: Death Metal/Grindcore
*Country: Mexico (IMG:https://metalarea.org/forum/style_images/flags/Mexico.png)
*Format: mp3@CBR320kbps
*Size: 33MB

Tracklist:
01. Seis Seis Seis
02. Sacrificio
03. Santa Lucia
04. Papa Capado
******************************
Total playing time: 5:51

Extended info
Настоящая ЕР Demoniaco!, не понатасканная с различных альбомов.


Technical info
(IMG:https://metalarea.org/images/spectrogram/2018_Jan/378df6e25da68a1bdf4a749eec45f2e1.png)
Input File: 02 Sacrificio.mp3
Channels : 2
Sample Rate : 44100
Precision : 16-bit
Duration : 00:01:12.21 = 3184241 samples = 5415.38 CDDA sectors
File Size : 3.03M
Bit Rate : 336k
Sample Encoding: MPEG audio (layer I, II or III)
Comments :
Title=Sacrificio
Artist=Brujeria
Album=1990 Demoniaco!
Tracknumber=02/04
Year=1990
Genre=Death Metal/Grindcore



Register


Вернуться к началу страницы
  Insert nick Quick quote
+Цитировать сообщение

ОтветитьСоздать новую тему
1 User(s) are reading this topic (1 Guests and 0 Anonymous Users)
0 Members:

 



- Lo-Fi Version Support form
Copyrights and abuse reports form
Time is now: 22nd May 2018 - 18:40:45