Welcome Guest ( Log In | Register )

 
Reply to this topicStart new topic
> Brujeria - ¡Machetazos! [ep] (1992), Death Metal/Grindcore
post Jan 13 2018, 09:48:20
Post #1

Join my religion, or die
**************
Group: Металариец
Posts: 9,705
Releases: 1161
From: Питера
On Forums: 9 years 1 month
Thanks: 15898 time(s)
Russian Federation


(IMG:https://metalarea.org/images/audiocovers/2018_Jan/acov_tid300463_thumb.jpg)

*Artist: Brujeria
*Album: ¡Machetazos! [ep]
*Year: 1992
*Genre: Death Metal/Grindcore
*Country: Mexico (IMG:https://metalarea.org/forum/style_images/flags/Mexico.png)
*Format: mp3@CBR320kbps
*Size: 23MB

Tracklist:
01. Padre Nuestro
02. Molestando Ninos Muertos
03. Grito De Los Soldados Poseidos
04. Machetazos (Sacrificio II)
05. Castigo Del Brujo
06. Cristo De La Roca
******************************
Total playing time: 10:01

Extended info
Настоящая ЕР Machetazos!, не понатасканная с различных альбомов.


Technical info
(IMG:https://metalarea.org/images/spectrogram/2018_Jan/14a249d589bcb617f5177d688b72387f.png)
Input File: 02 Molestando Ninos Muertos.mp3
Channels : 2
Sample Rate : 44100
Precision : 16-bit
Duration : 00:02:51.58 = 7566458 samples = 12868.1 CDDA sectors
File Size : 7.01M
Bit Rate : 327k
Sample Encoding: MPEG audio (layer I, II or III)
Comments :
Title=Molestando Ninos Muertos
Artist=Brujeria
Album=1992 Machetazos!
Tracknumber=02/06
Year=1992
Genre=Death Metal/Grindcore



Register


Go to the top of the page
  Insert nick Quick quote
+Quote Post

Reply to this topicStart new topic
1 User(s) are reading this topic (1 Guests and 0 Anonymous Users)
0 Members:

 



- Lo-Fi Version Support form
Copyrights and abuse reports form
Time is now: 19th November 2018 - 19:11:55