Welcome Guest ( Log In | Register )

> The Putrefying - Consumed By Pleasure (2017), Technical Death Metal
post Jan 13 2018, 10:11:43
Post #1

Аннигилятор пивА
Group Icon
Group: V.I.P
Posts: 46,692
Releases: 14016
From: Koenigsberg - TILZIT
On Forums: 11 years 11 months
Thanks: 310862 time(s)
Russian Federation


(IMG:https://metalarea.org/images/audiocovers/2018_Jan/acov_tid300464_thumb.jpg)

*Artist: The Putrefying
*Album: Consumed By Pleasure
*Year: 2017
*Genre: Technical Death Metal
*Country: Brazil (IMG:https://metalarea.org/forum/style_images/flags/Brazil.png)
*Format: mp3@CBR320kbps
*Size: 81MB

Tracklist:
1. Perpetual Suffering
2. The Crypt Of Molestation
3. Consumed By Pleasure
4. Punishment And Demise
5. Spawning The Forgotten
6. Abysmal Slaughter
7. Human Cerberus
8. Doomed To Impalement
9. Vulvatomic Bleeding
******************************
Total playing time: 35:20




Extended info
Anderson Souza - Guitar (2013-Presents) Evil Syndicate, ex-Scarlet Warfare, ex-Divine Symphony
Will Guerreiro - Vocal (2017-Presents)
Arthur Vitoriano - Bass (2016- Presents)
Sidney Lima - Drum (2016-Presents)
Special guest:
Ian Jekelis (Aborted)


Technical info
(IMG:https://metalarea.org/images/spectrogram/2018_Jan/6e8f7ad931d7125857c277fd9084d701.png)
Input File: 02. The Crypt Of Molestation.MP3
Channels : 2
Sample Rate : 44100
Precision : 16-bit
Duration : 00:04:00.40 = 10601816 samples = 18030.3 CDDA sectors
File Size : 9.62M
Bit Rate : 320k
Sample Encoding: MPEG audio (layer I, II or III)
Comments :
Title=The Crypt Of Molestation
Artist=The Putrefying
Album=Consumed By Pleasure
Tracknumber=2
Year=2017



Register


Вернуться к началу страницы
  Insert nick Quick quote
+Цитировать сообщение
 
Создать новую тему
Replies (1 - 1)
post Jan 13 2018, 12:03:27
Post #2

Аннигилятор пивА
Group Icon
Group: V.I.P
Posts: 46,692
Releases: 14016
From: Koenigsberg - TILZIT
On Forums: 11 years 11 months
Thanks: 310862 time(s)
Russian Federation


MIRROR
Register



Вернуться к началу страницы
  Insert nick Quick quote
+Цитировать сообщение

ОтветитьСоздать новую тему
1 User(s) are reading this topic (1 Guests and 0 Anonymous Users)
0 Members:

 



- Lo-Fi Version Support form
Copyrights and abuse reports form
Time is now: 22nd May 2018 - 18:45:17